Today is a free download without charge Download

Неудержимые 2 / The Expendables 2 (Саймон Уэст) [2012 г., Боевик, приключения, BDRip 720p][лицензия]

Reply to topic
 
Author
Message

Varius ®

Gender:

Longevity: 11 years

Posts: 2428

Location: Hell

Торрент-статистика

Post 05-Oct-2012 21:54

[Quote]

Неудержимые 2 / The Expendables 2- Год выхода: 2012
Страна: США
Жанр: боевик, триллер
Продолжительность: 01:42:16
Перевод: Дублированный [Лицензия]-Режиссер: Саймон Уэст-В ролях: Сильвестр Сталлоне, Джейсон Стэйтем, Дольф Лундгрен, Жан-Клод Ван Дамм, Терри Крюс, Рэнди Кутюр, Лиам Хемсворт, Юй Нань, Брюс Уиллис, Арнольд Шварценеггер-
Можно ли попробовать изменить расстановку сил в мире? Да, если вы круты как Ван Дамм, у вас есть пять тонн плутония и первоклассные наемники. Стоит ли шутить с Уиллисом, когда вы ему серьезно задолжали? Нет, даже если вы опасны как Сталлоне и у вас за спиной Неудержимые. Кого позвать на такое плевое дельце, как спасение мира? Пара проверенных ребят, Стэйтем и Норрис, явно не помешают. Пригодятся и малыш Хемсворт, и опасная красотка. Но команда будет неполной без Шварценеггера. Он реально вернулся! Все в сборе. Понеслась...-Качество: BDRip 720p
Формат: MKV
Видеокодек: H.264
Аудиокодек: AC3
Видео: 1280 x 528 (2.400) at 23.976 fps, AVC at 4849 Кбит/сек
Аудио: 6 канала(ов), 48,0 КГц, AC-3 at 448 Кбит/сек

MI

Код:
General
Unique ID                        : 163152204126574657821167981303291649741 (0x7ABDF8B6FA3CA290920637A751EF1ECD)
Complete name                    : D:\Downloads\Неудержимые 2.mkv
Format                           : Matroska
File size                        : 3.86 GiB
Duration                         : 1h 42mn
Overall bit rate                 : 5 404 Kbps
Writing application              : XviD4PSP 6.0 / 54.27.101
Writing library                  : XviD4PSP 6.0 / 54.27.101
Video
ID                               : 1
Format                           : AVC
Format/Info                      : Advanced Video Codec
Format profile                   : [email protected]
Format settings, CABAC           : Yes
Format settings, ReFrames        : 3 frames
Codec ID                         : V_MPEG4/ISO/AVC
Duration                         : 1h 42mn
Bit rate                         : 4 849 Kbps
Nominal bit rate                 : 5 100 Kbps
Width                            : 1 280 pixels
Height                           : 528 pixels
Display aspect ratio             : 2.40:1
Frame rate mode                  : Variable
Frame rate                       : 23.976 fps
Color space                      : YUV
Chroma subsampling               : 4:2:0
Bit depth                        : 8 bits
Scan type                        : Progressive
Bits/(Pixel*Frame)               : 0.299
Stream size                      : 3.46 GiB (90%)
Writing library                  : x264 core 128 r2216M 198a7ea
Encoding settings                : cabac=1 / ref=3 / deblock=1:0:0 / analyse=0x3:0x133 / me=hex / subme=7 / psy=1 / psy_rd=1.00:0.20 / mixed_ref=1 / me_range=16 / chroma_me=1 / trellis=1 / 8x8dct=1 / cqm=0 / deadzone=21,11 / fast_pskip=1 / chroma_qp_offset=-3 / threads=4 / lookahead_threads=1 / sliced_threads=0 / nr=0 / decimate=1 / interlaced=0 / bluray_compat=0 / constrained_intra=0 / bframes=3 / b_pyramid=1 / b_adapt=2 / b_bias=0 / direct=3 / weightb=1 / open_gop=0 / weightp=2 / keyint=230 / keyint_min=23 / scenecut=40 / intra_refresh=0 / rc_lookahead=40 / rc=cbr / mbtree=1 / bitrate=5100 / ratetol=1.0 / qcomp=0.60 / qpmin=10 / qpmax=51 / qpstep=4 / vbv_maxrate=5100 / vbv_bufsize=5100 / nal_hrd=none / ip_ratio=1.40 / aq=1:1.00
Language                         : English
Audio
ID                               : 2
Format                           : AC-3
Format/Info                      : Audio Coding 3
Mode extension                   : CM (complete main)
Codec ID                         : A_AC3
Duration                         : 1h 42mn
Bit rate mode                    : Constant
Bit rate                         : 448 Kbps
Channel(s)                       : 6 channels
Channel positions                : Front: L C R, Side: L R, LFE
Sampling rate                    : 48.0 KHz
Bit depth                        : 16 bits
Compression mode                 : Lossy
Delay relative to video          : 91ms
Stream size                      : 328 MiB (8%)
Language                         : English / Russian

Скриншоты

         

_________________

Создавая "Новую папку", не считайте себя Создателем - это право Вам дано Админом


Other forum [Profile] [PM]
Display posts from previous:    
Reply to topic

The time now is: Today 19:32

All times are GMT + 3 Hours



You cannot post new topics in this forum
You cannot reply to topics in this forum
You cannot edit your posts in this forum
You cannot delete your posts in this forum
You cannot vote in polls in this forum
You cannot attach files in this forum
You cannot download files in this forum