Today is a free download without charge Download

Дуэты / Duets (Брюс Пэлтроу / Bruce Paltrow) [2000 г., драма, комедия, музыка, BDRip 1080p]

Reply to topic
 
Author
Message

Delia ®

Gender:

Longevity: 10 years

Posts: 1821

Торрент-статистика

Post 05-Oct-2012 10:04

[Quote]

-ДуэтыDuets«Six lost souls in search of a little harmony.»-- Год выпуска: 2000
Страна: США
Жанр: драма, комедия, музыка
Продолжительность: 01:52:03
Перевод: (многоголосый, закадровый) R5
Режиссер: Брюс Пэлтроу / Bruce Paltrow
Сценарий: Джон Байрам / John Byrum
Продюсер: Кэтерин Е. Бейда / Katherine E. Beyda, Джон Байрам / John Byrum, Нил Кэнтон / Neil Canton, Кевин Джонс / Kevin Jones, Тони Людвиг / Tony Ludwig
Оператор: Пол Саросси / Paul Sarossy
Композитор: Дэвид Ньюман / David Newman
В ролях: Мария Белло (Suzi Loomis), Андре Брогер (Reggie Kane), Пол Джаматти (Todd Woods), Гвинет Пэлтроу (Liv), Скотт Спидман (Billy), Локлин Манро (Ronny Jackson), Кэрол Александр (Beth the Hostess), Майкл Роджерс (Tulsa Bartender), Хьюи Льюис (Ricky Dean), Аманда Крават (Redhead), Йен Робисан (Sales Guy), Роджер Хэскет (Sales Guy)
Описание: Мир полон добрых, невинных душ, которым просто не везет в жизни. Шесть таких неудачников, отчаянных и смелых, готовы отправиться в долгий и опасный путь, пережить уйму приключений и невероятных событий, чтобы, преодолев полстраны, оказаться на сказочном конкурсе караоке и, набравшись смелости, выиграть пять тысяч долларов.
Там, на залитой магическим светом сцене они обретут свое счастье, найдут новых друзей и поймут, что вместе можно справиться с любыми трудностями, которые готовит нам коварная судьба.
-
MPAA: - Лицам до 17 лет обязательно присутствие взрослого--
Качество: BDRip
Контейнер: MKV
Видео: AVC, 1920x1040 (16:9), 9517 kbps, 23,976 fps, 0,199 bpp
Аудио №1: русский /; AC3 /; 5.1 /; 48 kHz /; 448 kbps /; 16 bit
Аудио №2: русский /; AC3 /; 2.0 /; 48 kHz /; 192 kbps /; 16 bit; |AVO. Антон Карповский|
Субтитры №1: русские
Субтитры №2: английские--

Media Info

General
Unique ID : 170201279503274067320730417192172006699 (0x800B92F6B31B511EA64A85B368202D2B)
Complete name : E:\торрент\Duets.2000.1080p.BDRip-F.HD.mkv
Format : Matroska
Format version : Version 2
File size : 7.95 GiB
Duration : 1h 52mn
Overall bit rate : 10.2 Mbps
Encoded date : UTC 2012-10-05 04:50:26
Writing application : mkvmerge v5.8.0 ('No Sleep / Pillow') built on Sep 2 2012 15:37:04
Writing library : libebml v1.2.3 + libmatroska v1.3.0
Video
ID : 1
Format : AVC
Format/Info : Advanced Video Codec
Format profile : [email protected]
Format settings, CABAC : Yes
Format settings, ReFrames : 4 frames
Codec ID : V_MPEG4/ISO/AVC
Duration : 1h 52mn
Bit rate : 9 517 Kbps
Width : 1 920 pixels
Height : 1 040 pixels
Display aspect ratio : 16:9
Frame rate : 23.976 fps
Color space : YUV
Chroma subsampling : 4:2:0
Bit depth : 8 bits
Scan type : Progressive
Bits/(Pixel*Frame) : 0.199
Stream size : 7.29 GiB (92%)
Writing library : x264 core 125 r2208 d9d2288
Encoding settings : cabac=1 / ref=4 / deblock=1:-3:-3 / analyse=0x3:0x113 / me=umh / subme=10 / psy=1 / psy_rd=1.00:0.25 / mixed_ref=1 / me_range=32 / chroma_me=1 / trellis=2 / 8x8dct=1 / cqm=0 / deadzone=21,11 / fast_pskip=0 / chroma_qp_offset=0 / threads=6 / lookahead_threads=1 / sliced_threads=0 / nr=0 / decimate=1 / interlaced=0 / bluray_compat=0 / constrained_intra=0 / bframes=9 / b_pyramid=2 / b_adapt=2 / b_bias=0 / direct=3 / weightb=1 / open_gop=0 / weightp=2 / keyint=240 / keyint_min=23 / scenecut=40 / intra_refresh=0 / rc=2pass / mbtree=0 / bitrate=9517 / ratetol=1.0 / qcomp=0.65 / qpmin=5 / qpmax=51 / qpstep=4 / cplxblur=20.0 / qblur=0.5 / ip_ratio=1.25 / pb_ratio=1.25 / aq=2:0.90
Language : English
Default : Yes
Forced : No
Audio #1
ID : 2
Format : AC-3
Format/Info : Audio Coding 3
Mode extension : CM (complete main)
Codec ID : A_AC3
Duration : 1h 52mn
Bit rate mode : Constant
Bit rate : 448 Kbps
Channel(s) : 6 channels
Channel positions : Front: L C R, Side: L R, LFE
Sampling rate : 48.0 KHz
Bit depth : 16 bits
Compression mode : Lossy
Stream size : 359 MiB (4%)
Title : MVO . R5
Language : Russian
Default : Yes
Forced : No
Audio #2
ID : 3
Format : AC-3
Format/Info : Audio Coding 3
Mode extension : CM (complete main)
Codec ID : A_AC3
Duration : 1h 52mn
Bit rate mode : Constant
Bit rate : 192 Kbps
Channel(s) : 2 channels
Channel positions : Front: L R
Sampling rate : 48.0 KHz
Bit depth : 16 bits
Compression mode : Lossy
Stream size : 154 MiB (2%)
Title : AVO . Антон Карповский
Language : Russian
Default : No
Forced : No
Text #1
ID : 4
Format : UTF-8
Codec ID : S_TEXT/UTF8
Codec ID/Info : UTF-8 Plain Text
Language : Russian
Default : No
Forced : No
Text #2
ID : 5
Format : UTF-8
Codec ID : S_TEXT/UTF8
Codec ID/Info : UTF-8 Plain Text
Language : English
Default : No
Forced : No


Скриншоты

         
         

_________________
Человек – это канат, натянутый между животным и сверхчеловеком, – канат над пропастью.
В человеке ценно то, что он мост, а не цель. Фридрих Ницше
Other forum [Profile] [PM]
Display posts from previous:    
Reply to topic

The time now is: Today 10:11

All times are GMT + 3 Hours



You cannot post new topics in this forum
You cannot reply to topics in this forum
You cannot edit your posts in this forum
You cannot delete your posts in this forum
You cannot vote in polls in this forum
You cannot attach files in this forum
You cannot download files in this forum