Today is a free download without charge Download

Запретная зона / Chernobyl Diaries (Брэдли Паркер) [2012 г., ужасы, HDRip]

Reply to topic
 
Author
Message

Jurchic ®

Longevity: 9 years 7 months

Posts: 42

Location: такое любопытство

Торрент-статистика

Post 04-Oct-2012 23:48

[Quote]

Запретная зона / Chernobyl Diaries (2012) HDRip
«Десять лет назад правительство разрешило экскурсии в 'Мёртвый город'. Они утверждали, что это безопасно... они ошибались»
-- Год выпуска: 2012
Страна: США
Жанр: ужасы
Продолжительность: 01:28:22
Перевод: Профессиональный(дублированный)
Режиссер: Брэдли Паркер
Продюссер: Брайан Уиттен, Орен Пели, Роб Кауэн
Сценарий: Орен Пели, Кэри Ван Дайк, Шэйн Ван Дайк
В ролях: Ингрид Болсай Бердал, Дмитрий Дьяченко, Оливия Дадли, Девин Келли, Джесси МакКартни, Натан Филлипс, Джонатан Садовский, Милош Тимотиевич, Милутин Милошевич, Иван Джорджевич
Премьера в мире: 24 мая 2012
Премьера РФ: 24 мая 2012, «Top Film Distribution»
Релиз на DVD: 5 июля 2012, «New Dream media», «Новый Диск»

Описание: Шестеро молодых туристов-экстремалов прибыли на каникулы в Украину. Узнав о том, что в Зону отчуждения устраиваются экскурсии, они нанимают гида и отправляются за незабываемыми впечатлениями. И таковые не заставляют их долго ждать. Казалось, радиоактивный город пуст и заброшен. Там не осталось ничего живого. Но как только солнце прячется за горизонт, Припять оживает. Нечеловеческие крики сотрясают ночной воздух. Незадачливых путешественников охватывают ужас и паника. Они понимают, что не одни в этом мёртвом городе.
Качество: HDRip
Формат: MKV
Видео кодек: MPEG-4 AVC/H.264
Аудио кодек: AC3
Видео: 2759 Кбит/сек, 1040x560, 23,976 кадра/сек, AVC
Аудио#1: Русский (Dolby AC3, 6 каналов) 384 Кбит/сек, 48,0 КГц, 16 бит (по умолчанию)
Аудио#2: Английский (Dolby AC3, 6 каналов) 384 Кбит/сек, 48,0КГц, 16 бит
Релиз от: ПаZиtиFFк@

MediaInfo:

Код:
Общее
Уникальный идентификатор                 : 218102942499993093425457098980903805724 (0xA415194A6E3A0F6888F16C45EE1AE31C)
Полное имя                               : :\\Chernobyl.Diaries.2012.D.HDRip-AVC.mkv
Формат                                   : Matroska
Версия формата                           : Version 2
Размер файла                             : 2,18 Гбайт
Продолжительность                        : 1 ч. 28 м.
Общий поток                              : 3526 Кбит/сек
Название фильма                          : ПаZиtиFFк@
Дата кодирования                         : UTC 2012-10-04 12:39:43
Программа кодирования                    : mkvmerge v5.8.0 ('No Sleep / Pillow') built on Sep  2 2012 15:37:04
Библиотека кодирования                   : libebml v1.2.3 + libmatroska v1.3.0
Видео
Идентификатор                            : 1
Формат                                   : AVC
Формат/Информация                        : Advanced Video Codec
Профиль формата                          : [email protected]
Параметр CABAC формата                   : Да
Параметр ReFrames формата                : 9 кадров
Идентификатор кодека                     : V_MPEG4/ISO/AVC
Продолжительность                        : 1 ч. 28 м.
Битрейт                                  : 2759 Кбит/сек
Ширина                                   : 1040 пикселей
Высота                                   : 560 пикселей
Соотношение сторон                       : 1,85:1
Частота кадров                           : 23,976 кадра/сек
Цветовое пространство                    : YUV
Субдискретизация насыщенности            : 4:2:0
Битовая глубина                          : 8 бит
Тип развёртки                            : Прогрессивная
Бит/(Пиксели*Кадры)                      : 0.198
Размер потока                            : 1,66 Гбайт (76%)
Заголовок                                : /*spam*/
Библиотека кодирования                   : x264 core 125 r2200 999b753
Настройки программы                      : cabac=1 / ref=9 / deblock=1:-3:-3 / analyse=0x3:0x133 / me=umh / subme=7 / psy=1 / psy_rd=1.00:0.10 / mixed_ref=1 / me_range=16 / chroma_me=1 / trellis=2 / 8x8dct=1 / cqm=0 / deadzone=21,11 / fast_pskip=0 / chroma_qp_offset=-3 / threads=12 / lookahead_threads=2 / sliced_threads=0 / nr=0 / decimate=1 / interlaced=0 / bluray_compat=0 / constrained_intra=0 / bframes=7 / b_pyramid=2 / b_adapt=2 / b_bias=0 / direct=3 / weightb=1 / open_gop=0 / weightp=2 / keyint=250 / keyint_min=23 / scenecut=40 / intra_refresh=0 / rc_lookahead=50 / rc=2pass / mbtree=1 / bitrate=2759 / ratetol=1.0 / qcomp=0.60 / qpmin=0 / qpmax=69 / qpstep=4 / cplxblur=20.0 / qblur=0.5 / ip_ratio=1.40 / aq=1:1.00
Язык                                     : English
Default                                  : Да
Forced                                   : Да
Аудио #1
Идентификатор                            : 2
Формат                                   : AC-3
Формат/Информация                        : Audio Coding 3
Расширение режима                        : CM (complete main)
Параметр Endianness формата              : Big
Идентификатор кодека                     : A_AC3
Продолжительность                        : 1 ч. 28 м.
Вид битрейта                             : Постоянный
Битрейт                                  : 384 Кбит/сек
Каналы                                   : 6 каналов
Расположение каналов                     : Front: L C R, Side: L R, LFE
Частота                                  : 48,0 КГц
Битовая глубина                          : 16 бит
Метод сжатия                             : С потерями
Размер потока                            : 243 Мбайт (11%)
Заголовок                                : DUB
Язык                                     : Russian
Default                                  : Да
Forced                                   : Да
Аудио #2
Идентификатор                            : 3
Формат                                   : AC-3
Формат/Информация                        : Audio Coding 3
Расширение режима                        : CM (complete main)
Параметр Endianness формата              : Big
Идентификатор кодека                     : A_AC3
Продолжительность                        : 1 ч. 28 м.
Вид битрейта                             : Постоянный
Битрейт                                  : 384 Кбит/сек
Каналы                                   : 6 каналов
Расположение каналов                     : Front: L C R, Side: L R, LFE
Частота                                  : 48,0 КГц
Битовая глубина                          : 16 бит
Метод сжатия                             : С потерями
Размер потока                            : 243 Мбайт (11%)
Язык                                     : English
Default                                  : Нет
Forced                                   : Нет

Скриншоты

                   
Other forum [Profile] [PM]
Display posts from previous:    
Reply to topic

The time now is: Today 18:47

All times are GMT + 3 Hours



You cannot post new topics in this forum
You cannot reply to topics in this forum
You cannot edit your posts in this forum
You cannot delete your posts in this forum
You cannot vote in polls in this forum
You cannot attach files in this forum
You cannot download files in this forum