Today is a free download without charge Download

Тайник / Stash House (Эдуардо Родригез) [2012 г., триллер, HDRip]

Reply to topic
 
Author
Message

Jurchic ®

Longevity: 9 years 7 months

Posts: 42

Location: такое любопытство

Торрент-статистика

Post 04-Oct-2012 22:04

[Quote]

Тайник / Stash House«Для каждого злодея - свой день»-- Год выпуска: 2012
Страна: США / After Dark Films, Dark Castle Entertainment, Signature Pictures
Жанр: триллер
Продолжительность: 01:39:29
Перевод: Многоголосый закадровый профессиональный (лицензия)
Режиссер: Эдуардо Родригез
Продюссер: Стив Ричардс, Джоэл Силвер, Кортни Соломон
Сценарий: Гэри Спинелли
В ролях: Дольф Лундгрен, Шон Фэрис, Бриана Эвиган, Джон Уэртас, Алишиа Ош, Лэнс Э. Николс, Калеб Микаэльсон, Лоуренс Тернер, Хавьер Караскуилло, Джеймс Роулингс
Бюджет: $4 000 000
Премьера в мире: 11 мая 2012

Описание: Молодая пара Дэвид и Эмма Нэш переезжают в недавно приобретённый дом. Однако, радость от новоселья продолжается недолго, а желание супругов видеть в доме воплощение своих мечтаний и уютную обитель совсем скоро сменяется настоящим кошмаром.
Дэвид и Эмма случайно обнаруживают в одной из стен своего жилища огромный тайник с наркотиками. Если бы они знали, что столь неожиданное открытие было лишь началом леденящих кровь событий, — как только перепуганные молодые люди попытались сообщить о своей находке в полицию, к ним пожаловал «милый сосед» Эндрю Спектор с ружьём наперевес. Уж он-то в курсе тёмного прошлого этого домика, который, как оказалось, некогда был обителью крупнейшего наркоторговца. И теперь за содержимое его тайника насмерть борются бывшие подельники, мафиози и прочие головорезы.
Охота за наркотиками, кровавые разборки матёрых преступников, а также ежесекундное предчувствие неминуемой гибели — едва ли семья Нэш могла этого ожидать. Для того, чтобы выжить, молодым людям придётся собрать всю свою волю в кулак, и проявить небывалую находчивость, чтобы дать достойный отпор бандитам…
Качество: HDRip
Формат: AVI
Видео кодек: XviD
Аудио кодек: AC3
Видео: 1769 Кбит/сек, 720х400, 23,976 кадра/сек, MPEG-4 Visual
Аудио: 192 Кбит/сек, 48,0 КГц, 2 канала, 16 бит, AC-3
Релиз от: IRONCLUB

MediaInfo:

Общее
Полное имя : :\\\Tajnik.2012.P.HDRip.IRONCLUB.avi
Формат : AVI
Формат/Информация : Audio Video Interleave
Размер файла : 1,37 Гбайт
Продолжительность : 1 ч. 39 м.
Общий поток : 1971 Кбит/сек
Название фильма : Tajnik.2012.P.HDRip.IRONCLUB
Режиссёр : IRONCLUB
Программа кодирования : VirtualDubMod 1.5.10.3 | www.virtualdub-fr.org || (build 2550/release)
Видео
Идентификатор : 0
Формат : MPEG-4 Visual
Профиль формата : Advanced [email protected]
Параметр BVOP формата : 2
Параметр QPel формата : Нет
Параметр GMC формата : Без точки перехода
Параметр матрицы формата : Default (MPEG)
Идентификатор кодека : XVID
Идентификатор кодека/Подсказка : XviD
Продолжительность : 1 ч. 39 м.
Битрейт : 1769 Кбит/сек
Ширина : 720 пикселей
Высота : 400 пикселей
Соотношение сторон : 16:9
Частота кадров : 23,976 кадра/сек
Цветовое пространство : YUV
Субдискретизация насыщенности : 4:2:0
Битовая глубина : 8 бит
Тип развёртки : Прогрессивная
Метод сжатия : С потерями
Бит/(Пиксели*Кадры) : 0.256
Размер потока : 1,23 Гбайт (90%)
Библиотека кодирования : XviD 1.2.1 (UTC 2008-12-04)
Аудио
Идентификатор : 1
Формат : AC-3
Формат/Информация : Audio Coding 3
Расширение режима : CM (complete main)
Параметр Endianness формата : Big
Идентификатор кодека : 2000
Продолжительность : 1 ч. 39 м.
Вид битрейта : Постоянный
Битрейт : 192 Кбит/сек
Каналы : 2 канала
Расположение каналов : Front: L R
Частота : 48,0 КГц
Битовая глубина : 16 бит
Метод сжатия : С потерями
Размер потока : 137 Мбайт (10%)
Выравнивание : Разделение по промежуткам
Продолжительность промежутка : 42 мс. (1,00 видеокадр)
Время предзагрузки промежутка : 500 мс.

Скриншоты

           
Other forum [Profile] [PM]
Display posts from previous:    
Reply to topic

The time now is: Today 15:28

All times are GMT + 3 Hours



You cannot post new topics in this forum
You cannot reply to topics in this forum
You cannot edit your posts in this forum
You cannot delete your posts in this forum
You cannot vote in polls in this forum
You cannot attach files in this forum
You cannot download files in this forum