Today is a free download without charge Download

Совокупность лжи / Body of Lies (Ридли Скотт) [1080p] [2008 г., боевик, триллер, драма, BDRip]

Reply to topic
 
Author
Message

Delia ®

Gender:

Longevity: 10 years

Posts: 1821

Торрент-статистика

Post 04-Oct-2012 14:17

[Quote]

-Совокупность лжиBody of Lies«Не верь никому. Обмани всех.»-- Год выпуска: 2008
Страна: США
Жанр: боевик, триллер, драма
Продолжительность: 02:08:19
Перевод: Дублированный
Режиссер: Ридли Скотт / Ridley Scott
Сценарий: Уильям Монахэн / William Monahan, Дэвид Игнатиус / David Ignatius
Продюсер: Дональд Де Лайн / Donald De Line, Ридли Скотт / Ridley Scott, Закария Алауи / Zakaria Alaoui, Майкл Костиган / Michael Costigan, Чарльз Дж.Д. Шлиссел / Charles J.D. Schlissel
Оператор: Александр Уитт / Alexander Witt
Композитор: Марк Стрейтенфелд / Marc Streitenfeld
В ролях:
Леонардо ДиКаприо (Roger Ferris), Рассел Кроу (Ed Hoffman), Марк Стронг (Hani), Голшифте Фарахани (Aisha), Оскар Айзек (Bassam), Али Сулиман (Omar Sadiki), Алон Абутбул (Al-Saleem), Винс Колосимо (Skip), Саймон МакБерни (Garland), Мехди Неббу (Nizar), Майкл Гэстон (Holiday), Каис Насеф (Mustafa Karami)
Описание: ЦРУ охотится на руководителя серии террористических атак. Роджер Феррис является агентом национальной разведки, он перемещается по всему свету, пытаясь предотвратить любые нежелательные события. Око в небе, спутник, наблюдает за ним. На другом конце этой связи ветеран ЦРУ Эд Хоффман, который отслеживает события издалека.
Чем ближе подбирается Феррис к своей цели, тем явственнее понимает, что доверие - это одновременно и опасная штука, и то единственное, что позволит ему остаться в живых.
-
MPAA: - Лицам до 17 лет обязательно присутствие взрослого--
Качество: BDRip
Контейнер: MKV
Видео: AVC, 1920x800 (2.40:1), 7974 kbps, 23,976 fps, 0,217 bpp
Аудио №1: русский /; AC3 /; 5.1 /; 48 kHz /; 448 kbps /; 16 bit;
Аудио №2: английский /; AC3 /; 5.1 /; 48 kHz /; 448 kbps /; 16 bit
Субтитры №1: русские
Субтитры №2: русские; (forced)
Субтитры №3: английские; (SDH)
Навигация по главам: есть--

Media Info

General
Unique ID : 170219269452012140889057062790573170061 (0x800F09EFC68C462DBCC2C064B7C59D8D)
Complete name : E:\торрент\Sovokupnost.lzhi.2008.BDRip1080p-F.HD.mkv
Format : Matroska
Format version : Version 2
File size : 7.95 GiB
Duration : 2h 8mn
Overall bit rate : 8 868 Kbps
Encoded date : UTC 2012-10-03 19:32:06
Writing application : mkvmerge v5.8.0 ('No Sleep / Pillow') built on Sep 2 2012 15:37:04
Writing library : libebml v1.2.3 + libmatroska v1.3.0
Video
ID : 1
Format : AVC
Format/Info : Advanced Video Codec
Format profile : [email protected]
Format settings, CABAC : Yes
Format settings, ReFrames : 5 frames
Codec ID : V_MPEG4/ISO/AVC
Duration : 2h 8mn
Bit rate : 7 974 Kbps
Width : 1 920 pixels
Height : 800 pixels
Display aspect ratio : 2.40:1
Frame rate : 23.976 fps
Color space : YUV
Chroma subsampling : 4:2:0
Bit depth : 8 bits
Scan type : Progressive
Bits/(Pixel*Frame) : 0.217
Stream size : 6.99 GiB (88%)
Writing library : x264 core 125 r2208 d9d2288
Encoding settings : cabac=1 / ref=5 / deblock=1:-3:-3 / analyse=0x3:0x113 / me=umh / subme=10 / psy=1 / psy_rd=1.00:0.10 / mixed_ref=1 / me_range=48 / chroma_me=1 / trellis=2 / 8x8dct=1 / cqm=0 / deadzone=21,11 / fast_pskip=0 / chroma_qp_offset=1 / threads=6 / lookahead_threads=1 / sliced_threads=0 / nr=0 / decimate=1 / interlaced=0 / bluray_compat=0 / constrained_intra=0 / bframes=9 / b_pyramid=2 / b_adapt=2 / b_bias=0 / direct=3 / weightb=1 / open_gop=0 / weightp=2 / keyint=240 / keyint_min=23 / scenecut=40 / intra_refresh=0 / rc=2pass / mbtree=0 / bitrate=7974 / ratetol=1.0 / qcomp=0.65 / qpmin=10 / qpmax=51 / qpstep=4 / cplxblur=20.0 / qblur=0.5 / ip_ratio=1.25 / pb_ratio=1.25 / aq=2:0.90
Language : English
Default : Yes
Forced : No
Audio #1
ID : 2
Format : AC-3
Format/Info : Audio Coding 3
Mode extension : CM (complete main)
Codec ID : A_AC3
Duration : 2h 8mn
Bit rate mode : Constant
Bit rate : 448 Kbps
Channel(s) : 6 channels
Channel positions : Front: L C R, Side: L R, LFE
Sampling rate : 48.0 KHz
Bit depth : 16 bits
Compression mode : Lossy
Stream size : 411 MiB (5%)
Language : Russian
Default : Yes
Forced : No
Audio #2
ID : 3
Format : AC-3
Format/Info : Audio Coding 3
Mode extension : CM (complete main)
Codec ID : A_AC3
Duration : 2h 8mn
Bit rate mode : Constant
Bit rate : 448 Kbps
Channel(s) : 6 channels
Channel positions : Front: L C R, Side: L R, LFE
Sampling rate : 48.0 KHz
Bit depth : 16 bits
Compression mode : Lossy
Stream size : 411 MiB (5%)
Language : English
Default : No
Forced : No
Text #1
ID : 4
Format : UTF-8
Codec ID : S_TEXT/UTF8
Codec ID/Info : UTF-8 Plain Text
Language : Russian
Default : No
Forced : No
Text #2
ID : 5
Format : UTF-8
Codec ID : S_TEXT/UTF8
Codec ID/Info : UTF-8 Plain Text
Title : forced
Language : Russian
Default : No
Forced : No
Text #3
ID : 6
Format : UTF-8
Codec ID : S_TEXT/UTF8
Codec ID/Info : UTF-8 Plain Text
Title : SDH
Language : English
Default : No
Forced : No
Menu
00:00:00.000 : en:Chapter 01
00:03:08.188 : en:Chapter 02
00:06:53.871 : en:Chapter 03
00:12:32.960 : en:Chapter 04
00:16:10.719 : en:Chapter 05
00:18:41.578 : en:Chapter 06
00:26:49.107 : en:Chapter 07
00:30:44.634 : en:Chapter 08
00:34:10.590 : en:Chapter 09
00:39:22.401 : en:Chapter 10
00:41:48.506 : en:Chapter 11
00:44:08.312 : en:Chapter 12
00:48:10.012 : en:Chapter 13
00:52:48.957 : en:Chapter 14
00:56:01.524 : en:Chapter 15
01:00:10.690 : en:Chapter 16
01:03:56.749 : en:Chapter 17
01:07:02.852 : en:Chapter 18
01:09:53.814 : en:Chapter 19
01:14:44.229 : en:Chapter 20
01:17:20.427 : en:Chapter 21
01:22:43.249 : en:Chapter 22
01:24:49.709 : en:Chapter 23
01:28:14.914 : en:Chapter 24
01:31:36.324 : en:Chapter 25
01:35:20.005 : en:Chapter 26
01:40:17.803 : en:Chapter 27
01:43:22.696 : en:Chapter 28
01:46:48.985 : en:Chapter 29
01:52:50.430 : en:Chapter 30
01:55:17.535 : en:Chapter 31
01:58:11.125 : en:Chapter 32
02:01:50.594 : en:Chapter 33
02:08:17.815 : en:Chapter 34



_________________
Человек – это канат, натянутый между животным и сверхчеловеком, – канат над пропастью.
В человеке ценно то, что он мост, а не цель. Фридрих Ницше
Other forum [Profile] [PM]
Display posts from previous:    
Reply to topic

The time now is: Today 02:53

All times are GMT + 3 Hours



You cannot post new topics in this forum
You cannot reply to topics in this forum
You cannot edit your posts in this forum
You cannot delete your posts in this forum
You cannot vote in polls in this forum
You cannot attach files in this forum
You cannot download files in this forum