Today is a free download without charge Download

Боксер / The Philly Kid (2012) [H.264/720p-LQ] BDRip

Reply to topic
 
Author
Message

Varius ®

Gender:

Longevity: 11 years

Posts: 2428

Location: Hell

Торрент-статистика

Post 04-Oct-2012 05:07

[Quote]

Боксер / The Philly Kid (2012) [H.264/720p-LQ] BDRip- Русское название: Боксер
Оригинальное название: The Philly Kid
Год выпуска: 2012
Производство: США | AfterDark Films
Жанр: Боевик, Драма
Перевод: Многоголосый закадровый, профессиональный
Дата мировой премьеры: 11 мая 2012
Дата выхода DVD релиза: 11 октября 2012, «Флагман-Трейд»
Режиссер: Джейсон Коннери
Актеры: Уэс Чэтэм, Девон Сава, Сара Батлер, Нил МакДонаф, Лаки Джонсон, Крис Браунинг, Адам Мервис, Бернард Хок, Ава Богл, Эрик Скотт Вудс, Майкл Джей Уайт, Эндрю Сенсениг, Рич Клементи, Ронда Флойд Агийар, Ричард Эрвуд, Грэйлен Брайант Бэнкс, Эндрю Бентлер, Кайл Брэдли, Дэнни Космо Хиггинботтом, Дженнифер Куликкья, Джон Эванс, Дж.Д. Эвермор, Дуглас М. Гриффин, Меган Харман, Брэндон Хэйес, ЛаТойя Джонсон, Трэйси Джонсон, Блисс Келли, Лейси Ламберт
Описание фильма:
После 10-летнего тюремного заключения освобожден под честное слово борец-бывший чемпион Национальной Атлетической Ассоциации. Теперь чтобы спасти жизнь другу он должен сделать невозможное для себя, проиграть в серии борцовских поединков в клетке.

Продолжительность: 01:33:36
Качество видео: BDRip
Видеокодек: MPEG-4 AVC/H.264
Битрейт видео: ~2892 Кбит/сек
Размер кадра: 1280x720
Аудиокодек: AC3 5.1
Битрейт аудио: 448 Кбит/сек
Сэмпл:

MediaInfo

Общее
Уникальный идентификатор : 194359052808358442381810498716477161126 (0x92383125617C30ADA4624692BC9BFEA6)
Полное имя : D:\Торрент раздача\The.Philly.Kid.BDRip.2012.720p.mkv
Формат : Matroska
Версия формата : Version 2
Размер файла : 2,18 Гбайт
Продолжительность : 1 ч. 33 м.
Общий поток : 3341 Кбит/сек
Название фильма : Romeo
Дата кодирования : UTC 2012-10-03 16:50:30
Программа кодирования : mkvmerge v3.2.0 ('Beginnings') built on Feb 12 2010 16:46:17
Библиотека кодирования : libebml v0.7.9 + libmatroska v0.8.1
Видео
Идентификатор : 1
Формат : AVC
Формат/Информация : Advanced Video Codec
Профиль формата : [url=mailto:[email protected]][email protected][/url]
Параметр CABAC формата : Да
Параметр ReFrames формата : 2 кадра
Идентификатор кодека : V_MPEG4/ISO/AVC
Продолжительность : 1 ч. 33 м.
Битрейт : 2892 Кбит/сек
Ширина : 1280 пикселей
Высота : 720 пикселей
Соотношение сторон : 16:9
Режим частоты кадров : Постоянный
Частота кадров : 23,976 кадра/сек
Цветовое пространство : YUV
Субдискретизация насыщенности : 4:2:0
Битовая глубина : 8 бит
Тип развёртки : Прогрессивная
Бит/(Пиксели*Кадры) : 0.131
Размер потока : 1,85 Гбайт (85%)
Заголовок : Парень из Филадельфии
Библиотека кодирования : x264 core 112 r1834 a51816a
Настройки программы : cabac=1 / ref=2 / deblock=1:0:0 / analyse=0x3:0x113 / me=hex / subme=6 / psy=1 / psy_rd=1.00:0.00 / mixed_ref=0 / me_range=16 / chroma_me=1 / trellis=0 / 8x8dct=1 / cqm=0 / deadzone=21,11 / fast_pskip=1 / chroma_qp_offset=-2 / threads=4 / sliced_threads=0 / nr=0 / decimate=1 / interlaced=0 / constrained_intra=0 / bframes=3 / b_pyramid=0 / b_adapt=1 / b_bias=0 / direct=3 / weightb=1 / open_gop=0 / weightp=2 / keyint=250 / keyint_min=25 / scenecut=40 / intra_refresh=0 / rc_lookahead=40 / rc=2pass / mbtree=1 / bitrate=2892 / ratetol=1.0 / qcomp=0.60 / qpmin=10 / qpmax=51 / qpstep=4 / cplxblur=20.0 / qblur=0.5 / ip_ratio=1.41 / aq=1:1.00
Язык : English
Default : Да
Forced : Нет
Аудио
Идентификатор : 2
Формат : AC-3
Формат/Информация : Audio Coding 3
Расширение режима : CM (complete main)
Параметр Endianness формата : Big
Идентификатор кодека : A_AC3
Продолжительность : 1 ч. 33 м.
Вид битрейта : Постоянный
Битрейт : 448 Кбит/сек
Каналы : 6 каналов
Расположение каналов : Front: L C R, Side: L R, LFE
Частота : 48,0 КГц
Битовая глубина : 16 бит
Метод сжатия : С потерями
Задержка видео : 28 мс.
Размер потока : 300 Мбайт (13%)
Заголовок : Профессиональный многоголосый
Язык : Russian
Default : Да
Forced : Нет
Скриншоты:                    

_________________

Создавая "Новую папку", не считайте себя Создателем - это право Вам дано Админом


Other forum [Profile] [PM]
Display posts from previous:    
Reply to topic

The time now is: Today 04:11

All times are GMT + 3 Hours



You cannot post new topics in this forum
You cannot reply to topics in this forum
You cannot edit your posts in this forum
You cannot delete your posts in this forum
You cannot vote in polls in this forum
You cannot attach files in this forum
You cannot download files in this forum