Today is a free download without charge Download

Радиозвёзды / Radiostars (Ромейн Леви) [2012 г., комедия, HDRip]

Reply to topic
 
Author
Message

Jurchic ®

Longevity: 9 years 7 months

Posts: 42

Location: такое любопытство

Торрент-статистика

Post 04-Oct-2012 03:39

[Quote]

Радиозвёзды / Radiostars (2012) HDRip-- Год выпуска: 2012
Страна: Франция
Жанр: комедия
Продолжительность: 01:41:46
Перевод: Любительский,одноголосый (А.Бочаров)
Режиссер: Ромейн Леви
Продюссер: Ален Аттал, Xavier Amblard, Арно Бертран...
Сценарий: Ромейн Леви, Филипп Мешлен, Mathieu Oullion
В ролях: Ману Пайе, Кловис Корнийяк, Дуглас Аттал, Паскаль Демолон, Коме Левин, Сэм Карманн, Джеки Идо, Juliette Plumecocq-Mech...
Бюджет: €5 500 000
Премьера в мире: 20 января 2012-- --Описание: Мечтавший стать стэнд-ап комиком в Нью-Йорке Бен потерпел полную неудачу, и его личная жизнь тоже лежит в руинах. Он возвращается в Париж, где получает работу на радиостанции Blast FM. Там он знакомится со своими новыми коллегами по передаче Breakfast-club Алексом и Арнольдом. Но вскоре после его прибытия появляется серьёзная проблема — аудитория радиостанции резко снижается.
Вместе со своими новыми друзьями Бен решает отправиться в автобусный тур по Франции с тем, чтобы встретиться со своими слушателями и спасти Breakfast-club. Для заносчивых парижан поездка по стране откроет много нового и преподнесёт массу неожиданностей.
--Качество: HDRip
Формат: AVI
Видео кодек: XviD
Аудио кодек: AC-3
Видео: 1853 Кбит/сек, 720x304, 24.000 кадра/сек, MPEG-4 Visual (XviD)
Аудио: 192 Кбит/сек, 48.0 КГц, 2 канала, 16 бит, AC-3

MediaInfo:

Код:
Общее
Полное имя                               : :\\Радиозвёзды.2012.HDRip.avi
Формат                                   : AVI
Формат/Информация                        : Audio Video Interleave
Размер файла                             : 1,46 Гбайт
Продолжительность                        : 1 ч. 41 м.
Общий поток                              : 2054 Кбит/сек
Программа кодирования                    : VirtualDubMod 1.5.10.3 | www.virtualdub-fr.org || (build 2550/release)
Библиотека кодирования                   : VirtualDubMod build 2550/release
Видео
Идентификатор                            : 0
Формат                                   : MPEG-4 Visual
Профиль формата                          : Advanced [email protected]
Параметр BVOP формата                    : 2
Параметр QPel формата                    : Нет
Параметр GMC формата                     : Без точки перехода
Параметр матрицы формата                 : Default (MPEG)
Идентификатор кодека                     : XVID
Идентификатор кодека/Подсказка           : XviD
Продолжительность                        : 1 ч. 41 м.
Битрейт                                  : 1853 Кбит/сек
Ширина                                   : 720 пикселей
Высота                                   : 304 пикселя
Соотношение сторон                       : 2,35:1
Частота кадров                           : 24,000 кадра/сек
Цветовое пространство                    : YUV
Субдискретизация насыщенности            : 4:2:0
Битовая глубина                          : 8 бит
Тип развёртки                            : Прогрессивная
Метод сжатия                             : С потерями
Бит/(Пиксели*Кадры)                      : 0.353
Размер потока                            : 1,32 Гбайт (90%)
Библиотека кодирования                   : XviD 1.2.1 (UTC 2008-12-04)
Аудио
Идентификатор                            : 1
Формат                                   : AC-3
Формат/Информация                        : Audio Coding 3
Расширение режима                        : CM (complete main)
Параметр Endianness формата              : Big
Идентификатор кодека                     : 2000
Продолжительность                        : 1 ч. 41 м.
Вид битрейта                             : Постоянный
Битрейт                                  : 192 Кбит/сек
Каналы                                   : 2 канала
Расположение каналов                     : Front: L R
Частота                                  : 48,0 КГц
Битовая глубина                          : 16 бит
Метод сжатия                             : С потерями
Размер потока                            : 140 Мбайт (9%)
Выравнивание                             : Разделение по промежуткам
Продолжительность промежутка             : 42  мс. (1,00 видеокадр)
Время предзагрузки промежутка            : 500  мс.

Скриншоты

               


Last edited by Jurchic on 2012-10-04 07:54; edited 1 time in total
Other forum [Profile] [PM]
Similar theme
Forum Topic Author Torrent Replies Last Post
./templates/default/images/folder_dl.gif Современная проза, классика, поэзия Радио России | Театр у микрофона выпуск №12 [2006] [MP3] UndegraundMen
1 | 0

0 | 1315

0

2013-04-12 00:03
UndegraundMen Latest
./templates/default/images/folder_dl.gif Современная проза, классика, поэзия Радио России | Театр у микрофона выпуск №19 [2006] [MP3] UndegraundMen
1 | 0

0 | 1309

1

2013-04-16 00:00
UndegraundMen Latest
./templates/default/images/folder_dl.gif Современная проза, классика, поэзия Радио России | Театр у микрофона выпуск №16 [2006] [MP3] UndegraundMen
1 | 0

0 | 1389

0

2013-04-16 00:00
UndegraundMen Latest
./templates/default/images/folder_dl.gif Современная проза, классика, поэзия Радио России | Театр у микрофона выпуск №21 [2006] [MP3] UndegraundMen
1 | 0

0 | 1375

1

2013-04-16 00:00
UndegraundMen Latest
./templates/default/images/folder_dl.gif Современная проза, классика, поэзия Радио России | Театр у микрофона выпуск №20 [2006] [MP3] UndegraundMen
1 | 0

0 | 1242

3

2013-04-16 00:00
UndegraundMen Latest
./templates/default/images/folder_dl.gif Современная проза, классика, поэзия Радио России | Театр у микрофона выпуск №26 [2006] [MP3] UndegraundMen
1 | 0

0 | 1300

1

2013-04-19 00:00
UndegraundMen Latest
./templates/default/images/folder_dl.gif Современная проза, классика, поэзия Радио России | Театр у микрофона выпуск №25 [2006] [MP3] UndegraundMen
1 | 0

0 | 1133

0

2013-04-19 00:00
UndegraundMen Latest
./templates/default/images/folder_dl.gif Современная проза, классика, поэзия Радио России | Театр у микрофона выпуск №24 [2006] [MP3] UndegraundMen
1 | 0

0 | 1263

2

2013-04-19 00:00
UndegraundMen Latest
./templates/default/images/folder_dl.gif Современная проза, классика, поэзия Радио России | Театр у микрофона выпуск №30 [2006] [MP3] UndegraundMen
1 | 0

0 | 1207

1

2013-04-21 00:01
UndegraundMen Latest
Display posts from previous:    
Reply to topic

The time now is: Today 20:08

All times are GMT + 3 Hours



You cannot post new topics in this forum
You cannot reply to topics in this forum
You cannot edit your posts in this forum
You cannot delete your posts in this forum
You cannot vote in polls in this forum
You cannot attach files in this forum
You cannot download files in this forum