Today is a free download without charge Download

Шесть ступеней ада / 6 Degrees of Hell (Джо Раффа,(Ужасы) (2012) SATRip

Reply to topic
 
Author
Message

KirovSOFT ®

Gender:

Longevity: 9 years 2 months

Posts: 998

Location: Кировская область -Оричи

Торрент-статистика

Post 03-Oct-2012 18:27

[Quote]

Шесть ступеней ада / 6 Degrees of Hell (2012) SATRip«Hell Breaks Loose on Halloween...»- Русское название: Шесть ступеней ада
Оригинальное название: 6 Degrees of Hell
Год выпуска: 2012
Производство: США
Жанр: Ужасы
Перевод: Профессиональный (двуголосый)
Субтитры: Отсутствуют
Дата мировой премьеры: 24 августа 2012
Режиссер: Джо Раффа
Продюсер: Брюс Смит
Актеры: Кори Фельдман, Джилл Вилан, Никки Белл, Брайан Энтони Уилсон, Дэвид Дж. Боннер, Кайл Патрик Бреннан, Сьюзэн Моусес, Брайан Галлахер, Том МакКарти, Дэймон Бонетти, Брент Льюис, Джин Коннелли, Александр Манделл
Описание фильма:
Действие фильма происходит в небольшом городке штата Пенсильвания. Шесть человек оказываются в ловушке сверхъестественной бури, которой нужен лишь один из них.

Продолжительность: 01:26:43
Качество видео: SATRip
Видеокодек: Xvid
Битрейт видео: ~1995 Kbit/s
Размер кадра: 704 x 400
Аудиокодек: AC3 2.0
Битрейт аудио: 192 Kbit/s

MediaInfo

Общее
Полное имя : D:\Торренты\Шесть ступеней ада.2012.SATRip.avi
Формат : AVI
Формат/Информация : Audio Video Interleave
Размер файла : 1,32 Гбайт
Продолжительность : 1 ч. 26 м.
Общий поток : 2197 Кбит/сек
Программа кодирования : VirtualDubMod 1.5.10.3 (build 2550/release)
Библиотека кодирования : VirtualDubMod build 2550/release
Видео
Идентификатор : 0
Формат : MPEG-4 Visual
Профиль формата : Advanced [email protected]
Параметр BVOP формата : 1
Параметр QPel формата : Нет
Параметр GMC формата : Без точки перехода
Параметр матрицы формата : Default (H.263)
Идентификатор кодека : XVID
Идентификатор кодека/Подсказка : XviD
Продолжительность : 1 ч. 26 м.
Битрейт : 1995 Кбит/сек
Ширина : 704 пикс.
Высота : 400 пикс.
Соотношение сторон : 16:9
Частота кадров : 25,000 кадр/сек
Цветовое пространство : YUV
Подвыборка цветности : 4:2:0
Битовая глубина : 8 бит
Тип развёртки : Прогрессивная
Метод сжатия : С потерями
Бит/(Пиксели*Кадры) : 0.283
Размер потока : 1,20 Гбайт (91%)
Библиотека кодирования : XviD 1.2.1 (UTC 2008-12-04)
Аудио
Идентификатор : 1
Формат : AC-3
Формат/Информация : Audio Coding 3
Расширение режима : CM (complete main)
Идентификатор кодека : 2000
Продолжительность : 1 ч. 26 м.
Вид битрейта : Постоянный
Битрейт : 192 Кбит/сек
Каналы : 2 канала
Расположение каналов : Front: L R
Частота : 48,0 КГц
Битовая глубина : 16 бит
Метод сжатия : С потерями
Размер потока : 119 Мбайт (9%)
Выравнивание : Разделение по промежуткам
Продолжительность промежутка : 40 мс. (1,00 видеокадр)
Время предзагрузки промежутка : 500 ms
Скриншоты:
           


_________________
Other forum [Profile] [PM]
Display posts from previous:    
Reply to topic

The time now is: Today 12:34

All times are GMT + 3 Hours



You cannot post new topics in this forum
You cannot reply to topics in this forum
You cannot edit your posts in this forum
You cannot delete your posts in this forum
You cannot vote in polls in this forum
You cannot attach files in this forum
You cannot download files in this forum