Today is a free download without charge Download

Фобия 2 / Ha phraeng (Баньенг Писензенекун, Визут Пулворалакс, Павин Пурикитпани) [2009 г., драма, ужасы, триллер, черная комедия, DVDRip]

Reply to topic
 
Author
Message

Jurchic ®

Longevity: 9 years 7 months

Posts: 42

Location: такое любопытство

Торрент-статистика

Post 03-Oct-2012 13:34

[Quote]

Фобия 2 / Ha phraeng (2009) DVDRip- Год выпуска: 2009
Страна: Таиланд
Жанр: драма, ужасы, триллер, черная комедия
Продолжительность: 02:00:25
Перевод: Любительский (одноголосый закадровый)
Режиссер: Баньенг Писензенекун, Визут Пулворалакс, Павин Пурикитпани
Сценарий: Sopana Chaowwiwatkul, Chantawit Thanasewee, Nitis Napichayasutin
В ролях: Эрика Тода, Nattapong Chartpong, Pongsatorn Jongwilak, Wiwat Kongrasri, Jirayu La-Ongmanee, Рэй МакДональд, Kantapat Permpoonpatcharasuk, Phijitra Ratsameechawalit, Николь Терио, Чарли Трайраттана...
Премьера в мире: 24 сентября 2009
-Описание: На этот раз в сборник студии GTH вошло целых 5 историй. В итоге получились и весьма не дурно, перекрыв первую \\\"Фобию\\\", количеством и качеством, 4 истории Gost movie и одна – zombie movie
Novice / Послушник: В конце празднества голодных призраков в буддийский монастырь попадет 14-летний сорванец, и сразу нарушает серьезный запрет, чем наводит на себя гнев скитающихся духов
Ward / Больничная палата: Молодого парня-мопедиста, попавшего в аварию, помещают в больничную палату, где компанию ему составляет татуированный старик, живущий только на системе жизнеобеспечения...
Backpackers / Автостопщики: Путешествующая пара из Японии застряла где-то в глуши Бангкокской области. Единственный кто взялся их подвезти - водитель грузовика с напарником, в кузове которых, как оказалось, находится весьма опасный груз.
Salvage / Утиль: Предприимчивая мадам впаривает обманом автомобили, восстановленные после аварий со смертельным исходом. Однажды она задержалась на работе допоздна и ей представилась полная возможность ощутить на себе суеверные опасения своих покупателей.
In the End / Концовка: Дружественный стеб над Gost movie.
На съемках сиквела Alone-2 девушка, играющая призрака, чувствует себя плохо и отправляется в больницу, где и умирает. Осталась недоснятой последняя сцена. Пока съемочная группа ищет выход из ситуации, практически в то же время больная появляется но съемочной площадке и просит продолжить съемку! Как же так?
-Качество: DVDRip
Формат: AVI
Видео кодек: DivX
Аудио кодек: MP3
Видео: 1491 Кбит/с, 720x384, 25,000 кадров/сек, MPEG-4 Visual (DivX 5)
Аудио: 128 Кбит/сек, 48,0 КГц, MP3, 2 канала

MediaInfo:

Общее
Полное имя : :\\Phobia2.2009.DVDRip.avi
Формат : AVI
Формат/Информация : Audio Video Interleave
Размер файла : 1,37 Гбайт
Продолжительность : 2 ч. 0 м.
Общий поток : 1626 Кбит/сек
Программа кодирования : VirtualDubMod 1.5.4.1 (build 2178/release)
Библиотека кодирования : VirtualDubMod build 2178/release
Видео
Идентификатор : 0
Формат : MPEG-4 Visual
Параметр BVOP формата : 1
Параметр QPel формата : Нет
Параметр GMC формата : Без точки перехода
Параметр матрицы формата : Default (H.263)
Режим смешивания : Сжатый битовый поток
Идентификатор кодека : DX50
Идентификатор кодека/Подсказка : DivX 5
Продолжительность : 2 ч. 0 м.
Битрейт : 1491 Кбит/сек
Ширина : 720 пикселей
Высота : 384 пикселя
Соотношение сторон : 1,85:1
Частота кадров : 25,000 кадров/сек
Цветовое пространство : YUV
Субдискретизация насыщенности : 4:2:0
Битовая глубина : 8 бит
Тип развёртки : Прогрессивная
Метод сжатия : С потерями
Бит/(Пиксели*Кадры) : 0.216
Размер потока : 1,25 Гбайт (92%)
Библиотека кодирования : DivX 6.7.0 (UTC 2007-09-20)
Аудио
Идентификатор : 1
Формат : MPEG Audio
Версия формата : Version 1
Профиль формата : Layer 3
Режим : Joint stereo
Расширение режима : MS Stereo
Идентификатор кодека : 55
Идентификатор кодека/Подсказка : MP3
Продолжительность : 2 ч. 0 м.
Вид битрейта : Постоянный
Битрейт : 128 Кбит/сек
Каналы : 2 канала
Частота : 48,0 КГц
Метод сжатия : С потерями
Размер потока : 110 Мбайт (8%)
Выравнивание : Соединение по промежуткам
Продолжительность промежутка : 80 мс. (2,00 видеокадра)
Время предзагрузки промежутка : 504 мс.

Скриншоты

           
Добавлено спустя 5 минут 8 секунд:
Цитата:
Та ну это кино O_O Ух как... прям на психику давит...
Наконецто что-то страшненькое посмотрел
Зачем такие фильмы делать?....
Цитата:
  А это чтобы жизнь сладкой не казалась! Не расслабляться!!
Other forum [Profile] [PM]
Display posts from previous:    
Reply to topic

The time now is: Today 00:52

All times are GMT + 3 Hours



You cannot post new topics in this forum
You cannot reply to topics in this forum
You cannot edit your posts in this forum
You cannot delete your posts in this forum
You cannot vote in polls in this forum
You cannot attach files in this forum
You cannot download files in this forum