Today is a free download without charge Download

Взрывая историю. Пирамиды майя / Secrets of The Maya Pyramid (2016) HDTVRip [H.264/720р]

Reply to topic
 
Author
Message

}{@R0N ®

Longevity: 4 years 10 months

Posts: 7660

Торрент-статистика

Post 30-Jan-2017 13:40

[Quote]

Взрывая историю. Пирамиды майя / Secrets of The Maya Pyramid - Телекомпания: Windfall Films Ltd. (США)
Жанр: Документальный
Режиссёр: Люси Хэйкен

Описание:
Исчезнувший город Чичен-Ица в Мексике хранит древние тайны загадочной цивилизации. Как его построили и как человеческие жертвоприношения повлияли на его облик?
Глядя на дошедшие до нас памятники древних цивилизаций, трудно поверить, что задолго до появления современных технологий и мощной строительной техники удавалось возводить столь величественные сооружения. Программа ищет ответ на вопрос, как архитекторам и строителям давних эпох удавалось опередить свое время. С помощью компьютерных технологий здания будут разобраны буквально по кирпичикам, чтобы проследить их судьбу, а заодно выяснить, что скрывают каменные стены.
Продолжительность: 00:44:04
Качество видео: HDTVRip
Перевод: Одноголосый закадровый, профессиональный
Видео: AVC/H.264, 1280х720, ~6 999 Kbps
Аудио: MP3, 2 ch, 128 Kbps

Mediainfo:

General
Format : AVI
Format/Info : Audio Video Interleave
Format profile : OpenDML
File size : 2.20 GiB
Duration : 44mn 4s
Overall bit rate : 7 157 Kbps
Writing application : Lavf56.40.101
Video
ID : 0
Format : AVC
Format/Info : Advanced Video Codec
Format profile : [url=mailto:[email protected]][email protected][/url]
Format settings, CABAC : Yes
Format settings, ReFrames : 1 frame
Codec ID : H264
Duration : 44mn 4s
Bit rate : 6 999 Kbps
Width : 1 280 pixels
Height : 720 pixels
Display aspect ratio : 16:9
Frame rate mode : Variable
Frame rate : 120.000 (24/30) fps
Minimum frame rate : 24.000 fps
Maximum frame rate : 30.000 fps
Color space : YUV
Chroma subsampling : 4:2:0
Bit depth : 8 bits
Scan type : Progressive
Bits/(Pixel*Frame) : 0.063
Stream size : 2.15 GiB (98%)
Audio
ID : 1
Format : MPEG Audio
Format version : Version 1
Format profile : Layer 3
Mode : Joint stereo
Mode extension : MS Stereo
Codec ID : 55
Codec ID/Hint : MP3
Duration : 44mn 4s
Bit rate mode : Constant
Bit rate : 128 Kbps
Channel(s) : 2 channels
Sampling rate : 44.1 KHz
Compression mode : Lossy
Stream size : 40.4 MiB (2%)
Alignment : Aligned on interleaves
Interleave, duration : 26 ms (3.13 video frames)
Скриншоты:
       

Дополнительные скриншоты:

       
Other forum [Profile] [PM]
Display posts from previous:    
Reply to topic

The time now is: Today 02:06

All times are GMT + 3 Hours



You cannot post new topics in this forum
You cannot reply to topics in this forum
You cannot edit your posts in this forum
You cannot delete your posts in this forum
You cannot vote in polls in this forum
You cannot attach files in this forum
You cannot download files in this forum