Today is a free download without charge Download

Медальон / Stolen (Саймон Уэст / Simon West) [2012 г., боевик, триллер, DVD9] (лицензия)

Reply to topic
 
Author
Message

Meshanik ®

Gender:

Longevity: 8 years 10 months

Posts: 3866

Location: Los Angeles

Торрент-статистика

Post 03-Oct-2012 07:41

[Quote]

Медальон / Stolen (2012) DVD9
«12 часов, $10 миллионов, 1 похищенная дочь»
- Русское название: Медальон
Оригинальное название: Stolen
Год выпуска: 2012
Производство: Millennium Films / Nu Boyana Film Studios / Simon West Productions / Nu-Image Films / Wonderland Sound and Vision [США]
Жанр: Боевик, триллер
Продолжительность: 01:31:36
Перевод: Дублированный [лицензия]
Субтитры: Вшитые отключаемые
Язык субтитров: Русский-Режиссер: Саймон Уэст
Продюсер: Рене Бессон, Мэттью Джойнс, Джесси Кеннеди
Актеры: Николас Кейдж, Джош Лукас, Дэнни Хьюстон, Малин Акерман, Сами Гэйл, М. К. Гейни, Марк Вэлли, Эдрик Браун, Бэрри Шебака Хенли, Дж.Д. Эвермор
Описание фильма:
Неизвестные похищают дочь бывшего вора в законе, решившего завязать с темным прошлым. Похитители сообщают, что держат девочку-подростка в багажнике такси. У отца есть всего несколько часов, чтобы отыскать киднепперов и спасти ребенка.-Дата мировой премьеры: 6 сентября 2012
Дата российской премьеры: 6 сентября 2012, «Парадиз»
Дата выхода DVD релиза: 9 октября 2012, «Парадиз Медиа»
Дата выхода Blu-Ray релиза: 9 октября 2012, «Парадиз Медиа»- -Качество видео: DVD9
Видео: MPEG-2, [email protected] (PAL 16:9), ~7000 kbps, Bit/Pixel: 0.679
Аудио 1: AC3 5.1, 384 kbps [Русский - дублированный]
Аудио 2: AC3 2.0, 192 kbps [Русский - дублированный]
Аудио 3: AC3 5.1, 384 kbps [Английский - оригинал]
-

Дополнительные материалы...

  • Скоро на DVD

DVDInfo…

Title: Stolen.(2012).DVD9
Size: 5.77 Gb ( 6 050 968 KBytes ) - DVD-9
Enabled regions: 1, 2, 3, 4, 5, 6, 7, 8
VTS_01 :
Play Length: 00:00:01+01:31:36
Video: PAL 16:9 (720x576) VBR, Auto Pan&Scan
Audio:
Russian (Dolby AC3, 6 ch)
Russian (Dolby AC3, 2 ch)
English (Dolby AC3, 6 ch)
Subtitles:
Russian
VTS_02 :
Play Length: 00:00:01+00:00:17
Video: PAL 16:9 (720x576) VBR, Auto Pan&Scan
Audio:
Russian (Dolby AC3, 2 ch)
VTS_03 :
Play Length: 00:00:01+00:00:17
Video: PAL 16:9 (720x576) VBR, Auto Pan&Scan
Audio:
Russian (Dolby AC3, 2 ch)
VTS_04 :
Play Length: 00:00:01+00:09:35
Video: PAL 16:9 (720x576) VBR, Auto Pan&Scan
Audio:
Russian (Dolby AC3, 2 ch)

MediaInfo...

Полное имя : D:\Stolen.(2012).DVD9\VIDEO_TS\VTS_01_2.VOB
Формат : MPEG-PS
Размер файла : 1024 Мбайт
Продолжительность : 17 м.
Режим общего битрейта : Переменный
Общий поток : 8166 Кбит/сек
Видео
Идентификатор : 224 (0xE0)
Формат : MPEG Video
Версия формата : Version 2
Профиль формата : [email protected]
Параметр BVOP формата : Да
Параметр матрицы формата : Выборочная
Продолжительность : 17 м.
Вид битрейта : Переменный
Битрейт : 7043 Кбит/сек
Максимальный битрейт : 8500 Кбит/сек
Ширина : 720 пикселей
Высота : 576 пикселей
Соотношение сторон : 16:9
Частота кадров : 25,000 кадров/сек
Стандарт вещания : PAL
Цветовое пространство : YUV
Субдискретизация насыщенности : 4:2:0
Битовая глубина : 8 бит
Тип развёртки : Чересстрочная
Порядок развёртки : Верхнее поле первое
Метод сжатия : С потерями
Бит/(Пиксели*Кадры) : 0.679
Размер потока : 883 Мбайт (86%)
Аудио #1
Идентификатор : 189 (0xBD)-128 (0x80)
Формат : AC-3
Формат/Информация : Audio Coding 3
Расширение режима : CM (complete main)
Параметр Endianness формата : Big
Режим смешивания : DVD-Video
Продолжительность : 17 м.
Вид битрейта : Постоянный
Битрейт : 384 Кбит/сек
Каналы : 6 каналов
Расположение каналов : Front: L C R, Side: L R, LFE
Частота : 48,0 КГц
Битовая глубина : 16 бит
Метод сжатия : С потерями
Задержка видео : -344 мс.
Размер потока : 48,2 Мбайт (5%)
Аудио #2
Идентификатор : 189 (0xBD)-129 (0x81)
Формат : AC-3
Формат/Информация : Audio Coding 3
Расширение режима : CM (complete main)
Параметр Endianness формата : Big
Режим смешивания : DVD-Video
Продолжительность : 17 м.
Вид битрейта : Постоянный
Битрейт : 192 Кбит/сек
Каналы : 2 канала
Расположение каналов : Front: L R
Частота : 48,0 КГц
Битовая глубина : 16 бит
Метод сжатия : С потерями
Задержка видео : -248 мс.
Размер потока : 24,1 Мбайт (2%)
Аудио #3
Идентификатор : 189 (0xBD)-130 (0x82)
Формат : AC-3
Формат/Информация : Audio Coding 3
Расширение режима : CM (complete main)
Параметр Endianness формата : Big
Режим смешивания : DVD-Video
Продолжительность : 17 м.
Вид битрейта : Постоянный
Битрейт : 384 Кбит/сек
Каналы : 6 каналов
Расположение каналов : Front: L C R, Side: L R, LFE
Частота : 48,0 КГц
Битовая глубина : 16 бит
Метод сжатия : С потерями
Задержка видео : -344 мс.
Размер потока : 48,2 Мбайт (5%)
Текст
Идентификатор : 189 (0xBD)-32 (0x20)
Формат : RLE
Формат/Информация : Run-length encoding
Режим смешивания : DVD-Video
Меню

Скриншоты меню...

     
Скриншоты:        
     
Other forum [Profile] [PM]
Display posts from previous:    
Reply to topic

The time now is: Today 00:01

All times are GMT + 3 Hours



You cannot post new topics in this forum
You cannot reply to topics in this forum
You cannot edit your posts in this forum
You cannot delete your posts in this forum
You cannot vote in polls in this forum
You cannot attach files in this forum
You cannot download files in this forum