Today is a free download without charge Download

Незваные гости / Wedding Crashers [Uncorked Edition] (Дэвид Добкин) [2005, Комедия, HDRip] MVO

Reply to topic
 
Author
Message

Delia ®

Gender:

Longevity: 10 years

Posts: 1821

Торрент-статистика

Post 09-Mar-2011 00:44

[Quote]

Незваные гости / Wedding Crashers
Жанр: Комедия
Продолжительность: 02:07:00
Год выпуска: 2005
Страна: США
Перевод: Профессиональный (многоголосый, закадровый)
Слоган: «Прячьте своих подруг!»
Режиссер: Дэвид Добкин
В ролях: Оуэн Уилсон, Винс Вон, Кристофер Уокен, Исла Фишер, Джейн Сеймур, Дуайт Йокам, Брэдли Купер, Ребекка Де Морнэй, Нед Шмидтке, Уилл Феррелл, Рэйчел МакАдамс, Эллен Альбертини Доу
Описание: Любовь, серьезные отношения, брак – это глупые и ненужные слова для двух лучших друзей-холостяков Джереми и Джона. Для них свадьба – это повод познакомится с новой женщиной на одну ночь, и оторваться на празднике. Самое интересное, что на свадьбы они ходят не к своим родным и друзьям, а к совершенно незнакомым людям, прикидываясь их дальними родственниками и заранее придумывая невероятные истории, которые помогают им завоевывать сердца наивных женщин. Но неожиданно, побывав на одной из свадеб, друзья влюбляются. Теперь Джереми и Джону придется поменять свой образ жизни и навсегда забыть про пикап на свадьбах.

Формат: HDRip, MKV, H.264, AC3
Видео: 1280x544(2,35:1), MPEG4/ISO/AVC, [email protected], х264, 23,976 кадр/сек, 1 986 Кбит/сек, 0.119 Bits/(Pixel*Frame)
Аудио: 48,0 КГц, AC3 CBR, 6 канала(ов), Front:(L,C,R,Side: L,R, LFE), 448 Кбит/сек

MediaInfo

D:\Films\Wedding_Crashers_[Uncorked_Edition].[nolimits-team].mkv
General
Complete name : D:\Films\Wedding_Crashers_[Uncorked_Edition].[nolimits-team].mkv
Format : Matroska
File size : 2.20 GiB
Duration : 2h 7mn
Overall bit rate : 2 483 Kbps
Movie name : Rip by Romeo [NOLIMITS-TEAM.RU]
Encoded date : UTC 2010-12-18 14:06:15
Writing application : mkvmerge v3.0.0 ('Hang up your Hang-Ups') built on Dec 12 2009 15:20:35
Writing library : libebml v0.7.9 + libmatroska v0.8.1
Video #1
ID : 1
Format : AVC
Format/Info : Advanced Video Codec
Format profile : [email protected]
Format settings, CABAC : Yes
Format settings, ReFrames : 3 frames
Muxing mode : Container [email protected]
Codec ID : V_MPEG4/ISO/AVC
Duration : 2h 6mn
Bit rate : 1 986 Kbps
Nominal bit rate : 2 050 Kbps
Width : 1 280 pixels
Height : 544 pixels
Display aspect ratio : 2.35:1
Original display aspect ratio : 2.35:1
Frame rate : 23.976 fps
Resolution : 24 bits
Colorimetry : 4:2:0
Scan type : Progressive
Bits/(Pixel*Frame) : 0.119
Stream size : 1.76 GiB (80%)
Title : Незваные гости [Раскупоренная версия].[nolimits-team.ru]
Writing library : x264 core 108 r1788 c764e29
Encoding settings : cabac=1 / ref=1 / deblock=1:0:0 / analyse=0x3:0x3 / me=dia / subme=1 / psy=1 / psy_rd=0.00:0.00 / mixed_ref=0 / me_range=16 / chroma_me=1 / trellis=0 / 8x8dct=1 / cqm=0 / deadzone=21,11 / fast_pskip=1 / chroma_qp_offset=0 / threads=6 / sliced_threads=0 / slices=4 / nr=0 / decimate=1 / interlaced=0 / constrained_intra=0 / bframes=3 / b_pyramid=1 / b_adapt=1 / b_bias=0 / direct=1 / weightb=1 / open_gop=0 / weightp=0 / keyint=24 / keyint_min=1 / scenecut=40 / intra_refresh=0 / rc_lookahead=0 / rc=abr / mbtree=0 / bitrate=2050 / ratetol=1.0 / qcomp=0.60 / qpmin=0 / qpmax=51 / qpstep=4 / vbv_maxrate=17500 / vbv_bufsize=14500 / ip_ratio=1.10 / pb_ratio=1.10 / aq=1:1.00 / nal_hrd=vbr
Language : English
Audio #2
ID : 2
Format : AC-3
Format/Info : Audio Coding 3
Codec ID : A_AC3
Duration : 2h 7mn
Bit rate mode : Constant
Bit rate : 448 Kbps
Channel(s) : 6 channels
Channel positions : Front: L C R, Surround: L R, LFE
Sampling rate : 48.0 KHz
Video delay : 1s 0ms
Stream size : 407 MiB (18%)
Title : Профессиональный (многоголосый, закадровый)
Language : Russian

Показать скриншоты

    

_________________
Человек – это канат, натянутый между животным и сверхчеловеком, – канат над пропастью.
В человеке ценно то, что он мост, а не цель. Фридрих Ницше


Last edited by Delia on 2011-08-25 23:22; edited 1 time in total
Other forum [Profile] [PM]
Display posts from previous:    
Reply to topic

The time now is: Today 04:19

All times are GMT + 3 Hours



You cannot post new topics in this forum
You cannot reply to topics in this forum
You cannot edit your posts in this forum
You cannot delete your posts in this forum
You cannot vote in polls in this forum
You cannot attach files in this forum
You cannot download files in this forum