Today is a free download without charge Download

Кукарача (Андрей Желудков) [2013, Россия, мультфильм, WEBRip-AVC]

Reply to topic
 
Author
Message

Omen ®

Longevity: 7 years 11 months

Posts: 181087

Торрент-статистика

Post 17-Jan-2017 01:00

[Quote]

Кукарача
Страна: Россия
Жанр: мультфильм
Продолжительность: 00:05:03
Год выпуска: 2013
Режиссёр: Андрей Желудков
Описание: Музыкальный мультфильм по шуточному стихотворению Андрея Усачёва.
Качество: WEBRip-AVC
Формат: MP4
Видео: 1614 kbps, 1280х720 (16:9), 25.000 fps, AVC ([email protected])
Аудио: 126 kbps, 44.1 kHz, 2 channels, AAC (LC)
Субтитры: отсутствуют

Подробные технические данные

GeneralComplete name : Кукарача (2013).mp4Format : MPEG-4Format profile : Base Media / Version 2Codec ID : mp42File size : 63.1 MiBDuration : 5mn 3sOverall bit rate mode : VariableOverall bit rate : 1 743 KbpsEncoded date : UTC 2016-08-23 01:25:47Tagged date : UTC 2016-08-23 01:25:47gsst : 0gstd : 303531
VideoID : 1Format : AVCFormat/Info : Advanced Video CodecFormat profile : [email protected] settings, CABAC : YesFormat settings, ReFrames : 3 framesCodec ID : avc1Codec ID/Info : Advanced Video CodingDuration : 5mn 3sBit rate : 1 614 KbpsWidth : 1 280 pixelsHeight : 720 pixelsDisplay aspect ratio : 16:9Frame rate mode : ConstantFrame rate : 25.000 fpsColor space : YUVChroma subsampling : 4:2:0Bit depth : 8 bitsScan type : ProgressiveBits/(Pixel*Frame) : 0.070Stream size : 58.4 MiB (93%)Title : ISO Media file produced by Google Inc.Encoded date : UTC 2016-08-23 01:25:47Tagged date : UTC 2016-08-23 01:25:47
AudioID : 2Format : AACFormat/Info : Advanced Audio CodecFormat profile : LCCodec ID : 40Duration : 5mn 3sBit rate mode : VariableBit rate : 126 KbpsChannel(s) : 2 channelsChannel positions : Front: L RSampling rate : 44.1 KHzCompression mode : LossyStream size : 4.54 MiB (7%)Title : ISO Media file produced by Google Inc.Encoded date : UTC 2016-08-23 01:25:47Tagged date : UTC 2016-08-23 01:25:47

Скриншоты

Other forum [Profile] [PM]
Display posts from previous:    
Reply to topic

The time now is: Today 22:47

All times are GMT + 3 Hours



You cannot post new topics in this forum
You cannot reply to topics in this forum
You cannot edit your posts in this forum
You cannot delete your posts in this forum
You cannot vote in polls in this forum
You cannot attach files in this forum
You cannot download files in this forum