Today is a free download without charge Download

Эвенкийская колыбельная (Елизавета Скворцова) [2007, Россия, музыкальный мультфильм, WEBRip] из цикла "Колыбельные Мира"

Reply to topic
 
Author
Message

Omen ®

Longevity: 7 years 11 months

Posts: 181087

Торрент-статистика

Post 17-Jan-2017 01:00

[Quote]

Эвенкийская колыбельная
Страна: Россия
Жанр: музыкальный мультфильм
Продолжительность: 00:04:07
Год выпуска: 2007
Режиссёр: Елизавета Скворцова
Поёт: Валентина Кялундзюга
Описание: Колыбельная песня на эвенкийском языке.
Перед началом дети рассказывают про эвенков.
Качество: WEBRip
Формат: AVI
Видео: 1739 kbps, 608х480 (5:4), 25.000 fps, MPEG-4 Visual (XviD)
Аудио: 128 kbps, 44.1 kHz, 2 channels, MPEG Audio (MP3)
Субтитры: отсутствуют

Подробные технические данные

GeneralComplete name : Эвенкийская колыбельная.aviFormat : AVIFormat/Info : Audio Video InterleaveFile size : 55.3 MiBDuration : 4mn 7sOverall bit rate : 1 877 KbpsWriting application : Lavf55.33.100Writing library : VirtualDub build 35491/release
VideoID : 0Format : MPEG-4 VisualFormat profile : Advanced [email protected] settings, BVOP : 2Format settings, QPel : NoFormat settings, GMC : No warppointsFormat settings, Matrix : Default (H.263)Codec ID : XVIDCodec ID/Hint : XviDDuration : 4mn 7sBit rate : 1 739 KbpsWidth : 608 pixelsHeight : 480 pixelsDisplay aspect ratio : 5:4Frame rate : 25.000 fpsColor space : YUVChroma subsampling : 4:2:0Bit depth : 8 bitsScan type : ProgressiveCompression mode : LossyBits/(Pixel*Frame) : 0.238Stream size : 51.2 MiB (93%)Writing library : XviD 64
AudioID : 1Format : MPEG AudioFormat version : Version 1Format profile : Layer 3Mode : Joint stereoMode extension : MS StereoCodec ID : 55Codec ID/Hint : MP3Duration : 4mn 7sBit rate mode : ConstantBit rate : 128 KbpsChannel(s) : 2 channelsSampling rate : 44.1 KHzCompression mode : LossyStream size : 3.76 MiB (7%)Alignment : Split accross interleavesInterleave, duration : 40 ms (1.00 video frame)Interleave, preload duration : 500 ms

Скриншоты

Перевод колыбельной

Милое дитя – нюлимдя,
Ты проснулась – нюлимдя,
Я нашла тебя – нюлимдя,
Нашла и рада – нюлимдя.
Семь лет ждала – нюлимдя,
Семь зим ждала – нюлимдя,
И вдруг нашла – нюлимдя,
И вдруг нашла – нюлимдя.
Люблю тебя моя – нюлимдя,
Лизну тихонько – нюлимдя,
И присяду - нюлимдя
Я на пятки – нюлимдя.
Любовь моя ты – нюлимдя,
Играй ты на песке – нюлимдя,
Пусть бедность от тебя уйдёт
И будешь, счастлива всегда –
Моя нюлимдя.
Other forum [Profile] [PM]
Display posts from previous:    
Reply to topic

The time now is: Today 06:22

All times are GMT + 3 Hours



You cannot post new topics in this forum
You cannot reply to topics in this forum
You cannot edit your posts in this forum
You cannot delete your posts in this forum
You cannot vote in polls in this forum
You cannot attach files in this forum
You cannot download files in this forum