Today is a free download without charge Download

Синдбад. Пираты семи штормов (Владлен Барбэ) [2016, Россия, мультфильм, WEB-DLRip]

Reply to topic
 
Author
Message

Omen ®

Longevity: 7 years 11 months

Posts: 181087

Торрент-статистика

Post 17-Jan-2017 01:00

[Quote]

Синдбад. Пираты семи штормов- Страна: Россия
Жанр: мультфильм
Продолжительность: 01:17:30
Год выпуска: 2016
Русские субтитры: нет
Режиссёр: Владлен Барбэ
Роли озвучивали: Андрей Лёвин, Катерина Шпица, Дмитрий Нагиев, Марина Лисовец, Диомид Виноградов, Юрий Стоянов, Андрей Кайков, Эдуард Радзюкевич, Игорь Лифанов, Илья Лыков
Описание: Синдбад, молодой веселый пират, не очень удачлив в пиратском промысле — за год ему и его команде не удалось захватить ни одного корабля. Но судьба улыбается Синдбаду: старик Антиох показывает ему старинную карту и предлагает плыть на остров Скелета, где хранятся сокровища. Синдбад не знает, что этот Антиох — волшебник, который преследует свои корыстные планы…
Да тут еще Солара, подруга Синдбада по детским играм, свалилась ему на голову! Неужели любовь? Нет, Синдбад так просто не сдается! Путь на остров Скелета лежит через Море Семи Штормов. Синдабада и его команду ждет сражение с Канатным Монстром и встреча со своим заклятым врагом пиратом Кесамом. Да и на острове не обойдется без приключений: Циклоп, Птица Рух и ее Птенчик уже давно ждут гостей.
Семпл: http://multi-up.com/1135967
Качество: WEB-DLRip
Формат: AVI
Видео: 720x384 (1.85:1), 24.000 fps, XviD, 2132 Kbps, 0.32 bit/pixel
Аудио: 48 kHz, AC3 Dolby Digital, 3/2 (L,C,R,l,r) + LFE ch, 384 Kbps
Субтитры: отсутствуют

Подробные технические данные

General Complete name : Downloads\Синдбад.Пираты.семи.штормов.2016.WEB-DLRip.avi Format : AVI Format/Info : Audio Video Interleave File size : 1.37 GiB Duration : 1h 17mn Overall bit rate : 2 525 Kbps Writing application : VirtualDubMod 1.5.10.2 (build 2540/release) Writing library : VirtualDubMod build 2540/release Video #0 ID : 0 Format : MPEG-4 Visual Format profile : Advanced [email protected] Format settings, BVOP : 2 Format settings, QPel : No Format settings, GMC : No warppoints Format settings, Matrix : Default (MPEG) Codec ID : XVID Codec ID/Hint : XviD Duration : 1h 17mn Bit rate : 2 132 Kbps Width : 720 pixels Height : 384 pixels Display aspect ratio : 1.85:1 Frame rate : 24.000 fps Color space : YUV Chroma subsampling : 4:2:0 Bit depth : 8 bits Scan type : Progressive Compression mode : Lossy Bits/(Pixel*Frame) : 0.321 Stream size : 1.15 GiB (84%) Writing library : XviD 1.2.1 (UTC 2008-12-04) Audio #1 ID : 1 Format : AC-3 Format/Info : Audio Coding 3 Mode extension : CM (complete main) Format settings, Endianness : Big Codec ID : 2000 Duration : 1h 17mn Bit rate mode : Constant Bit rate : 384 Kbps Channel(s) : 6 channels Channel positions : Front: L C R, Side: L R, LFE Sampling rate : 48.0 KHz Bit depth : 16 bits Compression mode : Lossy Stream size : 213 MiB (15%) Alignment : Split accross interleaves Interleave, duration : 42 ms (1.00 video frame) Interleave, preload duration : 500 ms

Скриншоты

Other forum [Profile] [PM]
Display posts from previous:    
Reply to topic

The time now is: Today 02:59

All times are GMT + 3 Hours



You cannot post new topics in this forum
You cannot reply to topics in this forum
You cannot edit your posts in this forum
You cannot delete your posts in this forum
You cannot vote in polls in this forum
You cannot attach files in this forum
You cannot download files in this forum