Today is a free download without charge Download

Снежная королева 3. Огонь и лед (Алексей Цицилин) [2016, Россия, мультфильм, комедия, приключения, семейный, TeleSynch]

Reply to topic
 
Author
Message

Omen ®

Longevity: 7 years 11 months

Posts: 181087

Торрент-статистика

Post 10-Jan-2017 01:01

[Quote]

-Снежная королева 3. Огонь и лед- Страна: Россия
Жанр: мультфильм, комедия, приключения, семейный
Продолжительность: 01:21:31
Год выпуска: 2016
Перевод: Не требуется
Русские субтитры: нет-Бюджет: 975 000 000 руб.
Премьера (мир): 23 декабря 2016
Премьера (РФ): 29 декабря 2016, «UPI»
-Режиссёр: Алексей Цицилин
Роли озвучивали: Наталия Быстрова, Филипп Лебедев, Диомид Виноградов, Александр Груздев, Михаил Тихонов, Николай Быстров, Ольга Шорохова, Ольга Зубкова, Всеволод Кузнецов, Филл Савенков

Описание: Герда — милая девочка, которая не знает, что такое страх, и это в ее-то нежном возрасте! Не так давно она даже сражалась с опасными врагами, но в этой битве ей безоговорочно удалось победить. Конечно, девочка потратила на это много сил, но победа того стоила — злодеи были повержены и не имели ни единого шанса дать отпор. И все в ее жизни было хорошо кроме самого главного. Ее родителей, любимых маму и папу, унес Северный Ветер. Девочка потратила очень много сил для того, чтобы найти их и вернуть обратно, но все попытки были безуспешными.
Несмотря на это, она совершенно не собирается сдаваться. Герда готова сделать все, чтобы разыскать пропавших предков. Девочка, уже не раз бывавшая в разных сложных ситуациях, прекрасно знает, какой непростой будет дорога. Но она по-прежнему готова идти до самого конца наперекор всем опасностям. На пути она встретит много всего интересного. Но главной находкой станет старинное сокровище троллей. Найдя эту драгоценность, она было оживилась — Герда думала, что это поможет ей разыскать родителей. Но ее боевое настроение быстро сменилось печальным, когда девочка поняла, что камень не просто не исполняет ее желания, а становится опасным для всего мира. И теперь у главной героини есть целых две важнейших задачи: спасти весь мир, а затем и своих родителей. И сделать это будет ой как нелегко.
-Качество: TeleSynch
Формат: AVI
Видео: XVID, 720х352, 25,000 кадров/сек, 8 бит
Аудио: AC-3, 48,0 КГц, 384 Кбит/сек, 2 ch
Субтитры: отсутствуют

Подробные технические данные

ОбщееПолное имя : E:\Sneg.Korileva.3.2O16.O.TS.14OOMB.aviФормат : AVIФормат/Информация : Audio Video InterleaveРазмер файла : 1,37 ГбайтПродолжительность : 1 ч. 21 м.Общий поток : 2401 Кбит/секПрограмма кодирования : VirtualDubMod 1.5.10.2 (build 2540/release)Библиотека кодирования : VirtualDubMod build 2540/release
ВидеоИдентификатор : 0Формат : MPEG-4 VisualПрофиль формата : Advanced [email protected]Параметр BVOP формата : 2Параметр QPel формата : НетПараметр GMC формата : Без точки переходаПараметр матрицы формата : Default (MPEG)Идентификатор кодека : XVIDИдентификатор кодека/Подсказка : XviDПродолжительность : 1 ч. 21 м.Продолжительность оригинала : 37 м. 49 с.Битрейт : 2042 Кбит/секШирина : 720 пикселейВысота : 352 пикселяСоотношение сторон : 2,045Частота кадров : 25,000 кадров/секЦветовое пространство : YUVСубдискретизация насыщенности : 4:2:0Битовая глубина : 8 битТип развёртки : ПрогрессивнаяМетод сжатия : С потерямиБит/(Пиксели*Кадры) : 0.322Размер потока : 552 Мбайт (39%)Библиотека кодирования : XviD 1.2.1 (UTC 2008-12-04)
АудиоИдентификатор : 1Формат : AC-3Формат/Информация : Audio Coding 3Расширение режима : CM (complete main)Параметр Endianness формата : BigИдентификатор кодека : 2000Продолжительность : 1 ч. 21 м.Продолжительность оригинала : 37 м. 49 с.Вид битрейта : ПостоянныйБитрейт : 384 Кбит/секКаналы : 2 каналаРасположение каналов : Front: L RЧастота : 48,0 КГцЧастота кадров : 31,250 кадров/сек (1536 spf)Битовая глубина : 16 битМетод сжатия : С потерямиЗадержка видео : 12 мс.Размер потока : 104 Мбайт (7%)Выравнивание : Разделение по промежуткамПродолжительность промежутка : 40 мс. (1,00 видеокадр)Время предзагрузки промежутка : 500 мс.

Скриншоты

Без рекламы!
Other forum [Profile] [PM]
Display posts from previous:    
Reply to topic

The time now is: Today 10:53

All times are GMT + 3 Hours



You cannot post new topics in this forum
You cannot reply to topics in this forum
You cannot edit your posts in this forum
You cannot delete your posts in this forum
You cannot vote in polls in this forum
You cannot attach files in this forum
You cannot download files in this forum