Today is a free download without charge Download

Бременские разбойники (Алексей Лукьянчиков) [2016, Россия, Украина, Мультфильм, комедия, приключения, музыка, WEB-DLRip]

Reply to topic
 
Author
Message

Omen ®

Longevity: 7 years 11 months

Posts: 181087

Торрент-статистика

Post 10-Jan-2017 01:00

[Quote]

Бременские разбойники- Страна: Россия, Украина
Жанр: Мультфильм, комедия, приключения, музыка
Продолжительность: 01:12:46
Год выпуска: 2016
Перевод: Русский
Русские субтитры: нет-Режиссёр: Алексей Лукьянчиков-Роли озвучивали: Дина Гарипова, Наталья Подольская, Максим Матвеев, Александр Иванов, Владимир Кошевой, Андрей Тартаков, Дмитрий Филимонов, Юлия Яблонская, Игорь Тарадайкин, Анастасия Садовская-Описание: Среди высохших рек и выжженных лесов раскинулось Королевство, где не поют птицы, не доются коровы, а люди живут в постоянном страхе и нищете. А все потому, что 18 лет назад в результате дворцового переворота к власти пришли хитрые и жадные Министры. Неповиновение новым законам жестоко карается, и никто не осмеливается перечить Королевской охране. Никто, кроме благородного разбойника Трубин Гуда, который грабит Министров и раздаёт награбленное бедным. А помогают ему в этом его верные друзья: кот Зигмунд, пес Баскервиль, петух Петруччо и ослица Гретхен. В то время как жители Королевства слагают о нём легенды, а Министры готовы отдать за его голову любую награду, сам Трубин Гуд мечтает лишь о том, чтобы вернуть Королевство к прежнему процветанию.- / -Качество: WEB-DLRip
Формат: AVI
Видео: 720x400 (16:9), 25.000 fps, XviD, 1907 Kbps, 0.26 bit/pixel
Аудио: 48 kHz, AC3 Dolby Digital, 3/2 (L,C,R,l,r) + LFE ch, 384 Kbps [iTunes]
Субтитры: отсутствуют

MI

General Complete name : Downloads\Bremenskie.RaZBoyniKi.2O16.O.WEB-DLRip.14OOMb.avi Format : AVI Format/Info : Audio Video Interleave File size : 1.37 GiB Duration : 1h 12mn Overall bit rate : 2 689 Kbps Writing application : VirtualDubMod 1.5.10.2 (build 2540/release) Writing library : VirtualDubMod build 2540/release Video #0 ID : 0 Format : MPEG-4 Visual Format profile : Advanced [email protected] Format settings, BVOP : 2 Format settings, QPel : No Format settings, GMC : No warppoints Format settings, Matrix : Default (MPEG) Codec ID : XVID Codec ID/Hint : XviD Duration : 1h 12mn Bit rate : 1 907 Kbps Width : 720 pixels Height : 400 pixels Display aspect ratio : 16:9 Frame rate : 25.000 fps Color space : YUV Chroma subsampling : 4:2:0 Bit depth : 8 bits Scan type : Progressive Compression mode : Lossy Bits/(Pixel*Frame) : 0.265 Stream size : 992 MiB (71%) Writing library : XviD 1.2.1 (UTC 2008-12-04) Audio #1 ID : 1 Format : AC-3 Format/Info : Audio Coding 3 Mode extension : CM (complete main) Format settings, Endianness : Big Codec ID : 2000 Duration : 1h 12mn Bit rate mode : Constant Bit rate : 384 Kbps Channel(s) : 6 channels Channel positions : Front: L C R, Side: L R, LFE Sampling rate : 48.0 KHz Bit depth : 16 bits Compression mode : Lossy Stream size : 200 MiB (14%) Alignment : Split accross interleaves Interleave, duration : 40 ms (1.00 video frame) Interleave, preload duration : 500 ms

Скриншоты

Other forum [Profile] [PM]
Display posts from previous:    
Reply to topic

The time now is: Today 08:53

All times are GMT + 3 Hours



You cannot post new topics in this forum
You cannot reply to topics in this forum
You cannot edit your posts in this forum
You cannot delete your posts in this forum
You cannot vote in polls in this forum
You cannot attach files in this forum
You cannot download files in this forum