Today is a free download without charge Download

Война Роуз / Война супругов Роуз / The War of the Roses (Дэнни ДеВито / Danny DeVito) [1989, США, триллер, комедия, BDRip]

Reply to topic
 
Author
Message

Delia ®

Gender:

Longevity: 11 years

Posts: 1821

Торрент-статистика

Post 01-Oct-2012 08:28

[Quote]

-Война супругов РоузThe War of the Roses«Once in a lifetime comes a motion picture that makes you feel like falling in love all over again. This is not that movie.»-- Год выпуска: 1989
Страна: США
Жанр: черная комедия
Продолжительность: 01:56:32
Перевод: Профессиональный (многоголосый, закадровый)
Режиссер: Дэнни ДеВито / Danny DeVito
Сценарий: Майкл Лисон / Michael Leeson, Уоррен Эдлер / Warren Adler
Продюсер: Джеймс Л. Брукс / James L. Brooks, Даг Клейборн / Doug Claybourne, Майкл Лисон / Michael Leeson, Арнон Милчэн / Arnon Milchan, Дж. Марина Мулфридел / J. Marina Muhlfriedel
Оператор: Стивен Х. Бёрум / Stephen H. Burum
Композитор: Дэвид Ньюман / David Newman
В ролях: Майкл Дуглас (Oliver Rose), Кэтлин Тёрнер (Barbara Rose), Дэнни ДеВито (Gavin D'Amato), Марианне Зэгебрехт (Susan), Шон Эстин (Josh at 17), Хэзер Фэйрфилд (Carolyn at 17), Г.Д. Спрэдлин (Harry Thurmont), Питер Донат (Jason Larrabee), Дэн Кастелланета (Man in Chair), Глория Кромвелл (Mrs. Marshall), Харлан Арнольд (Mr. Dell), Мэри Фогарти (Mrs. Dell)
Описание: После семнадцати лет совместной жизни Оливер и Барбара Роз решают развестись. Дети выросли, а Барбара - натура деятельная и предприимчивая. Она устала сидеть дома и решает направить ключом бьющую энергию в деловое русло. Но ее мужу, респектабельному чиновнику, это намерение жены совсем не по душе.
Только Барбаре нет до мужа никакого дела. Она делит дом на две половины. Теперь границы обозначены. Пора переходить к военным действиям. По правде сказать, кошка с собакой жили бы лучше.
-
MPAA: - Лицам до 17 лет обязательно присутствие взрослого--
Качество: BDRip
Контейнер: MKV
Видео: AVC, 1280x692 (1.850), 4537 kbps, 23,976 fps, 0,214 bpp
Аудио №1: русский /; AC3 /; 5.1 /; 48 kHz /; 448 kbps /; 16 bit
Аудио №2: английский /; AC3 /; 5.1 /; 48 kHz /; 384 kbps /; 16 bit
Субтитры №1: русские
Субтитры №2: английские
Навигация по главам: есть
--

Media Info

General
Unique ID : 232149260079906817794221978316195249151 (0xAEA652373F9574BA85BB76CD47703BFF)
Complete name : E:\The War of the Roses (1989)BDRip-F.HD.mkv
Format : Matroska
Format version : Version 2
File size : 4.37 GiB
Duration : 1h 56mn
Overall bit rate : 5 366 Kbps
Encoded date : UTC 2012-10-01 04:34:48
Writing application : mkvmerge v5.8.0 ('No Sleep / Pillow') built on Sep 2 2012 15:37:04
Writing library : libebml v1.2.3 + libmatroska v1.3.0
Video
ID : 1
Format : AVC
Format/Info : Advanced Video Codec
Format profile : [email protected]
Format settings, CABAC : Yes
Format settings, ReFrames : 9 frames
Codec ID : V_MPEG4/ISO/AVC
Duration : 1h 56mn
Bit rate : 4 537 Kbps
Width : 1 280 pixels
Height : 692 pixels
Display aspect ratio : 1.850
Frame rate : 23.976 fps
Color space : YUV
Chroma subsampling : 4:2:0
Bit depth : 8 bits
Scan type : Progressive
Bits/(Pixel*Frame) : 0.214
Stream size : 3.60 GiB (83%)
Writing library : x264 core 125 r2208 d9d2288
Encoding settings : cabac=1 / ref=9 / deblock=1:-3:-3 / analyse=0x3:0x113 / me=umh / subme=10 / psy=1 / psy_rd=1.00:0.05 / mixed_ref=1 / me_range=32 / chroma_me=1 / trellis=2 / 8x8dct=1 / cqm=0 / deadzone=21,11 / fast_pskip=0 / chroma_qp_offset=1 / threads=6 / lookahead_threads=1 / sliced_threads=0 / nr=0 / decimate=1 / interlaced=0 / bluray_compat=0 / constrained_intra=0 / bframes=10 / b_pyramid=2 / b_adapt=2 / b_bias=0 / direct=3 / weightb=1 / open_gop=0 / weightp=2 / keyint=240 / keyint_min=23 / scenecut=40 / intra_refresh=0 / rc=2pass / mbtree=0 / bitrate=4537 / ratetol=1.0 / qcomp=0.65 / qpmin=10 / qpmax=51 / qpstep=4 / cplxblur=20.0 / qblur=0.5 / ip_ratio=1.40 / pb_ratio=1.30 / aq=2:0.90
Language : English
Default : Yes
Forced : No
Audio #1
ID : 2
Format : AC-3
Format/Info : Audio Coding 3
Mode extension : CM (complete main)
Codec ID : A_AC3
Duration : 1h 56mn
Bit rate mode : Constant
Bit rate : 448 Kbps
Channel(s) : 6 channels
Channel positions : Front: L C R, Side: L R, LFE
Sampling rate : 48.0 KHz
Bit depth : 16 bits
Compression mode : Lossy
Stream size : 373 MiB (8%)
Title : Многоголосый закадровый, R5
Language : Russian
Default : Yes
Forced : No
Audio #2
ID : 3
Format : AC-3
Format/Info : Audio Coding 3
Mode extension : CM (complete main)
Codec ID : A_AC3
Duration : 1h 56mn
Bit rate mode : Constant
Bit rate : 384 Kbps
Channel(s) : 6 channels
Channel positions : Front: L C R, Side: L R, LFE
Sampling rate : 48.0 KHz
Bit depth : 16 bits
Compression mode : Lossy
Stream size : 320 MiB (7%)
Language : English
Default : No
Forced : No
Text #1
ID : 4
Format : UTF-8
Codec ID : S_TEXT/UTF8
Codec ID/Info : UTF-8 Plain Text
Language : Russian
Default : No
Forced : No
Text #2
ID : 5
Format : UTF-8
Codec ID : S_TEXT/UTF8
Codec ID/Info : UTF-8 Plain Text
Language : English
Default : No
Forced : No
Menu
00:00:00.000 : en:Chapter 01
00:02:15.175 : en:Chapter 02
00:13:56.877 : en:Chapter 03
00:20:39.154 : en:Chapter 04
00:24:16.204 : en:Chapter 05
00:34:45.875 : en:Chapter 06
00:44:39.510 : en:Chapter 07
00:50:39.202 : en:Chapter 08
00:55:29.701 : en:Chapter 09
00:58:24.959 : en:Chapter 10
01:00:48.853 : en:Chapter 11
01:03:41.359 : en:Chapter 12
01:10:02.615 : en:Chapter 13
01:25:43.179 : en:Chapter 14
01:33:33.232 : en:Chapter 15
01:42:17.464 : en:Chapter 16
01:49:33.191 : en:Chapter 17
01:51:39.067 : en:Chapter 18


Скриншоты

     
     
     

_________________
Человек – это канат, натянутый между животным и сверхчеловеком, – канат над пропастью.
В человеке ценно то, что он мост, а не цель. Фридрих Ницше
Other forum [Profile] [PM]
Display posts from previous:    
Reply to topic

The time now is: Today 02:08

All times are GMT + 3 Hours



You cannot post new topics in this forum
You cannot reply to topics in this forum
You cannot edit your posts in this forum
You cannot delete your posts in this forum
You cannot vote in polls in this forum
You cannot attach files in this forum
You cannot download files in this forum