Today is a free download without charge Download

Храбрец (Андрей Кузнецов) [2015, Россия, мультфильм, сказка, WEBRip-AVC] из цикла "Гора Самоцветов"

Reply to topic
 
Author
Message

Omen ®

Longevity: 7 years 11 months

Posts: 181087

Торрент-статистика

Post 06-Jan-2017 01:00

[Quote]

Храбрец
Страна: Россия
Жанр: мультфильм, сказка
Продолжительность: 00:12:51
Год выпуска: 2015
Режиссёр: Андрей Кузнецов
Описание: По удэгейской народной сказке.
Два брата отправились на охоту. Увидев тигра, младший брат испугался и убежал. Но потом усовестился своей трусости и отправился искать старшего брата. Много страшного ожидало его в пути, но маленький охотник сумел преодолеть все испытания.
Качество: WEBRip-AVC
Формат: MP4
Видео: 1506 kbps, 1280х720 (16:9), 25.000 fps, AVC ([email protected])
Аудио: 192 kbps, 44.1 kHz, 2 channels, AAC (LC)
Субтитры: отсутствуют

Подробные технические данные

GeneralComplete name : Храбрец (2015).mp4Format : MPEG-4Format profile : Base Media / Version 2Codec ID : mp42File size : 156 MiBDuration : 12mn 51sOverall bit rate mode : VariableOverall bit rate : 1 700 KbpsEncoded date : UTC 2016-03-03 13:08:53Tagged date : UTC 2016-03-03 13:08:53gsst : 0gstd : 771065
VideoID : 1Format : AVCFormat/Info : Advanced Video CodecFormat profile : [email protected] settings, CABAC : YesFormat settings, ReFrames : 1 frameFormat settings, GOP : M=1, N=60Codec ID : avc1Codec ID/Info : Advanced Video CodingDuration : 12mn 51sBit rate : 1 506 KbpsMaximum bit rate : 9 401 KbpsWidth : 1 280 pixelsHeight : 720 pixelsDisplay aspect ratio : 16:9Frame rate mode : ConstantFrame rate : 25.000 fpsColor space : YUVChroma subsampling : 4:2:0Bit depth : 8 bitsScan type : ProgressiveBits/(Pixel*Frame) : 0.065Stream size : 138 MiB (89%)Tagged date : UTC 2016-03-03 13:08:56Color primaries : BT.709Transfer characteristics : BT.709Matrix coefficients : BT.709
AudioID : 2Format : AACFormat/Info : Advanced Audio CodecFormat profile : LCCodec ID : 40Duration : 12mn 51sBit rate mode : VariableBit rate : 192 KbpsMaximum bit rate : 202 KbpsChannel(s) : 2 channelsChannel positions : Front: L RSampling rate : 44.1 KHzCompression mode : LossyStream size : 17.6 MiB (11%)Title : IsoMedia File Produced by Google, 5-11-2011Encoded date : UTC 2016-03-03 13:08:55Tagged date : UTC 2016-03-03 13:08:56

Скриншоты

Other forum [Profile] [PM]
Display posts from previous:    
Reply to topic

The time now is: Today 03:59

All times are GMT + 3 Hours



You cannot post new topics in this forum
You cannot reply to topics in this forum
You cannot edit your posts in this forum
You cannot delete your posts in this forum
You cannot vote in polls in this forum
You cannot attach files in this forum
You cannot download files in this forum