Today is a free download without charge Download

Учёный медведь (Андрей Кузнецов) [2014, Россия, мультфильм, сказка, WEBRip-AVC] из цикла "Гора Самоцветов"

Reply to topic
 
Author
Message

Omen ®

Longevity: 7 years 11 months

Posts: 181087

Торрент-статистика

Post 02-Jan-2017 01:00

[Quote]

Учёный медведь
Страна: Россия
Жанр: мультфильм, сказка
Продолжительность: 00:13:32
Год выпуска: 2014
Режиссёр: Андрей Кузнецов
Описание: По мотивам марийской сказки.
Однажды решил царь дочку свою замуж выдать. Женихи со всего света съехались. Кого из них выбрать - непонятно. Издал тогда царь указ: кто с первой попытки спрятанную царевну найдёт, тот и женится. А в это время один парень на охоту пошёл...
Качество: WEBRip-AVC
Формат: MP4
Видео: 1346 kbps, 1280х720 (16:9), 25.000 fps, AVC ([email protected])
Аудио: 192 kbps, 44.1 kHz, 2 channels, AAC (LC)
Субтитры: отсутствуют

Подробные технические данные

GeneralComplete name : Учёный медведь (2014).mp4Format : MPEG-4Format profile : Base Media / Version 2Codec ID : mp42File size : 149 MiBDuration : 13mn 32sOverall bit rate mode : VariableOverall bit rate : 1 541 KbpsEncoded date : UTC 2015-04-23 12:13:29Tagged date : UTC 2015-04-23 12:13:29gsst : 0gstd : 812046
VideoID : 1Format : AVCFormat/Info : Advanced Video CodecFormat profile : [email protected] settings, CABAC : YesFormat settings, ReFrames : 1 frameFormat settings, GOP : M=1, N=60Codec ID : avc1Codec ID/Info : Advanced Video CodingDuration : 13mn 32sBit rate : 1 346 KbpsMaximum bit rate : 5 814 KbpsWidth : 1 280 pixelsHeight : 720 pixelsDisplay aspect ratio : 16:9Frame rate mode : ConstantFrame rate : 25.000 fpsColor space : YUVChroma subsampling : 4:2:0Bit depth : 8 bitsScan type : ProgressiveBits/(Pixel*Frame) : 0.058Stream size : 130 MiB (87%)Tagged date : UTC 2015-04-23 12:13:34
AudioID : 2Format : AACFormat/Info : Advanced Audio CodecFormat profile : LCCodec ID : 40Duration : 13mn 32sBit rate mode : VariableBit rate : 192 KbpsMaximum bit rate : 202 KbpsChannel(s) : 2 channelsChannel positions : Front: L RSampling rate : 44.1 KHzCompression mode : LossyStream size : 18.6 MiB (12%)Title : IsoMedia File Produced by Google, 5-11-2011Encoded date : UTC 2015-04-23 12:13:32Tagged date : UTC 2015-04-23 12:13:34

Скриншоты

Other forum [Profile] [PM]
Display posts from previous:    
Reply to topic

The time now is: Today 21:09

All times are GMT + 3 Hours



You cannot post new topics in this forum
You cannot reply to topics in this forum
You cannot edit your posts in this forum
You cannot delete your posts in this forum
You cannot vote in polls in this forum
You cannot attach files in this forum
You cannot download files in this forum