Today is a free download without charge Download

Как-то раз, под Новый Год (Елена Петкевич) [2009, Беларусь, мультфильм, сказка, WEBRip]

Reply to topic
 
Author
Message

Omen ®

Longevity: 7 years 11 months

Posts: 181087

Торрент-статистика

Post 01-Jan-2017 01:00

[Quote]

Как-то раз, под Новый Год
Страна: Беларусь
Жанр: мультфильм, сказка
Продолжительность: 00:09:44
Год выпуска: 2009
Режиссёр: Елена Петкевич
Описание: Как-то раз, под Новый Год брат и сестра получили от родителей подарки: мальчику - костюм Деда Мороза, а девочке - заводные игрушки. Из-за игрушек дети и поссорились. Только этого и надо было Бабе Яге: послала она к ним в дом двух воронов, которые сестрёнку похитили, а Баба Яга её потом в ёлочку превратила. А брата вороны не похитили, потому что за Деда Мороза его приняли. Вот и отправился мальчик в лес, сестрёнку выручать...
Качество: WEBRip
Формат: AVI
Видео: 1983 kbps, 576х464 (5:4), 25.000 fps, MPEG-4 Visual (XviD)
Аудио: 192 kbps, 44.1 kHz, 2 channels, MPEG Audio (MP3)
Субтитры: отсутствуют

Подробные технические данные

GeneralComplete name : Как-то раз, под Новый Год (2009).aviFormat : AVIFormat/Info : Audio Video InterleaveFile size : 152 MiBDuration : 9mn 44sOverall bit rate : 2 185 KbpsWriting application : VirtualDubMod 1.5.10.2 (build 2540/release)Writing library : VirtualDubMod build 2540/release
VideoID : 0Format : MPEG-4 VisualFormat profile : Advanced [email protected] settings, BVOP : 2Format settings, QPel : NoFormat settings, GMC : No warppointsFormat settings, Matrix : Default (H.263)Codec ID : XVIDCodec ID/Hint : XviDDuration : 9mn 44sBit rate : 1 983 KbpsWidth : 576 pixelsHeight : 464 pixelsDisplay aspect ratio : 5:4Frame rate : 25.000 fpsColor space : YUVChroma subsampling : 4:2:0Bit depth : 8 bitsScan type : ProgressiveCompression mode : LossyBits/(Pixel*Frame) : 0.297Stream size : 138 MiB (91%)Writing library : XviD 64
AudioID : 1Format : MPEG AudioFormat version : Version 1Format profile : Layer 3Codec ID : 55Codec ID/Hint : MP3Duration : 9mn 44sBit rate mode : ConstantBit rate : 192 KbpsChannel(s) : 2 channelsSampling rate : 44.1 KHzCompression mode : LossyStream size : 13.4 MiB (9%)Alignment : Split accross interleavesInterleave, duration : 40 ms (1.00 video frame)Interleave, preload duration : 500 ms

Скриншоты

Other forum [Profile] [PM]
Display posts from previous:    
Reply to topic

The time now is: Today 04:20

All times are GMT + 3 Hours



You cannot post new topics in this forum
You cannot reply to topics in this forum
You cannot edit your posts in this forum
You cannot delete your posts in this forum
You cannot vote in polls in this forum
You cannot attach files in this forum
You cannot download files in this forum