Today is a free download without charge Download

Сталкер (Андрей Тарковский) [1979, СССР, драма, фантастика, WEB-DL 1080p] + Sub Rus, Eng, Fre, Ger, Ita, Spa

Reply to topic
 
Author
Message

Omen ®

Longevity: 8 years 10 months

Posts: 181086

Торрент-статистика

Post 28-Dec-2016 01:00

[Quote]

Сталкер- Страна: СССР
Студия: «Мосфильм»
Жанр: драма, фантастика
Год выпуска: 1979
Продолжительность: 02:35:12
Перевод: Не требуется
Cубтитры: русские, английские, французские, немецкие, итальянские, испанские-Режиссер: Андрей Тарковский-В ролях:
Александр Кайдановский, Анатолий Солоницын, Алиса Фрейндлих, Николай Гринько, Наташа Абрамова, Файме Юрно, Е. Костин, Раймо Ренди, Сергей Яковлев, Владимир Заманский
Описание:
Фильм снят по мотивам повести братьев Стругацких «Пикник на обочине». Действие разворачивается в некоей запретной Зоне, где по слухам, исполняются самые заветные желания. Туда и отправляются Писатель и Профессор, каждый по своим причинам, о которых предпочитают не говорить. А ведет их Сталкер - проводник по Зоне, то ли юродивый, то ли апостол новой веры.-Сэмпл | Кинопоиск-Тип релиза: WEB-DL 1080p
Контейнер: MKV
Видео: MPEG-4 AVC ([email protected]); 1480x1078, Display aspect ratio 1.373:1, 25.000 fps, 4579 Kbps
Аудио 1: Русский: AC-3; 16 bit 48 Khz; 5.1ch 448 Kbps; CBR | [url=viewtopic.php?t=573834]DVD9[/url], спасибо Sadxa
Аудио 2: Русский: AC-3; 16 bit 48 Khz; Mono 96 Kbps; CBR | -""-
Формат субтитров: softsub (SRT)
Выражаю признательность DON Releaser (&BLUE_LIFE) за распознанные титры и Euroxit за поименованные главы.

MediaInfo

General
Unique ID : 208886204715772585262568301196109749260 (0x9D260508A4EDE7BD9C8426F0CF851C0C)
Complete name : Сталкер.1979.mkv
Format : Matroska
Format version : Version 2
File size : 5.56 GiB
Duration : 2h 35mn
Overall bit rate : 5 125 Kbps
Encoded date : UTC 2016-12-27 09:04:26
Writing application : mkvmerge v7.8.0 ('River Man') 32bit built on Mar 27 2015 16:18:02
Writing library : libebml v1.3.1 + libmatroska v1.4.2
Video
ID : 1
Format : AVC
Format/Info : Advanced Video Codec
Format profile : [email protected]
Format settings, CABAC : Yes
Format settings, ReFrames : 5 frames
Codec ID : V_MPEG4/ISO/AVC
Duration : 2h 35mn
Bit rate : 4 479 Kbps
Width : 1 480 pixels
Height : 1 078 pixels
Display aspect ratio : 1.373
Frame rate mode : Constant
Frame rate : 25.000 fps
Color space : YUV
Chroma subsampling : 4:2:0
Bit depth : 8 bits
Scan type : Progressive
Bits/(Pixel*Frame) : 0.112
Stream size : 4.86 GiB (87%)
Title : Сталкер.1979
Language : Russian
Default : Yes
Forced : No
Color primaries : BT.709
Transfer characteristics : BT.709
Matrix coefficients : BT.709
Color range : Limited
Audio #1
ID : 2
Format : AC-3
Format/Info : Audio Coding 3
Mode extension : CM (complete main)
Format settings, Endianness : Big
Codec ID : A_AC3
Duration : 2h 35mn
Bit rate mode : Constant
Bit rate : 448 Kbps
Channel(s) : 6 channels
Channel positions : Front: L C R, Side: L R, LFE
Sampling rate : 48.0 KHz
Bit depth : 16 bits
Compression mode : Lossy
Stream size : 497 MiB (9%)
Title : AC-3; 16 bit 48 Khz; 5.1ch 448 Kbps; CBR | DVD9 «Artificial Eye»
Language : Russian
Default : Yes
Forced : No
Audio #2
ID : 3
Format : AC-3
Format/Info : Audio Coding 3
Mode extension : CM (complete main)
Format settings, Endianness : Big
Codec ID : A_AC3
Duration : 2h 35mn
Bit rate mode : Constant
Bit rate : 96.0 Kbps
Channel(s) : 1 channel
Channel positions : Front: C
Sampling rate : 48.0 KHz
Bit depth : 16 bits
Compression mode : Lossy
Stream size : 107 MiB (2%)
Title : AC-3; 16 bit 48 Khz; Mono 96 Kbps; CBR | DVD9 «Artificial Eye»
Language : Russian
Default : No
Forced : No
Text #1
ID : 4
Format : UTF-8
Codec ID : S_TEXT/UTF8
Codec ID/Info : UTF-8 Plain Text
Title : Субтитры русские
Language : Russian
Default : No
Forced : No
Text #2
ID : 5
Format : UTF-8
Codec ID : S_TEXT/UTF8
Codec ID/Info : UTF-8 Plain Text
Title : Субтитры английские
Language : Russian
Default : No
Forced : No
Text #3
ID : 6
Format : UTF-8
Codec ID : S_TEXT/UTF8
Codec ID/Info : UTF-8 Plain Text
Title : Субтитры французские
Language : French
Default : No
Forced : No
Text #4
ID : 7
Format : UTF-8
Codec ID : S_TEXT/UTF8
Codec ID/Info : UTF-8 Plain Text
Title : Субтитры немецкие
Language : French
Default : No
Forced : No
Text #5
ID : 8
Format : UTF-8
Codec ID : S_TEXT/UTF8
Codec ID/Info : UTF-8 Plain Text
Title : Субтитры итальянские
Language : Italian
Default : No
Forced : No
Text #6
ID : 9
Format : UTF-8
Codec ID : S_TEXT/UTF8
Codec ID/Info : UTF-8 Plain Text
Title : Субтитры испанские
Language : Spanish
Default : No
Forced : No
Menu
00:00:00.000 : ru:Первая серия. Титры
00:03:54.720 : ru:Дом Сталкера
00:12:29.320 : ru:Писатель и Профессор
00:20:45.480 : ru:Дорога в Зону
00:37:00.160 : ru:Знакомство с Зоной
00:46:43.920 : ru:Начало пути
01:02:48.120 : ru:Вторая серия. Пропажа Профессора
01:10:50.120 : ru:Спор
01:20:12.680 : ru:Сон Сталкера
01:24:37.000 : ru:Мясорубка
01:46:52.600 : ru:На пороге тайны
02:02:25.520 : ru:Бомба
02:18:21.360 : ru:Возвращение домой

Скриншоты

Дополнительно

Bluray JPN ---------------------------- Bluray UK ---------------------------- YouTube ---------------------------- Current
Other forum [Profile] [PM]
Display posts from previous:    
Reply to topic

The time now is: Today 14:50

All times are GMT + 3 Hours



You cannot post new topics in this forum
You cannot reply to topics in this forum
You cannot edit your posts in this forum
You cannot delete your posts in this forum
You cannot vote in polls in this forum
You cannot attach files in this forum
You cannot download files in this forum