Today is a free download without charge Download

Ограбление по-бельгийски / Il etait une fois, une fois (Кристиан Маррет-Пальмар) [2012 г., комедия, HDRip]

Reply to topic
 
Author
Message

Jurchic ®

Longevity: 9 years 7 months

Posts: 42

Location: такое любопытство

Торрент-статистика

Post 30-Sep-2012 00:18

[Quote]

Ограбление по-бельгийски / Il etait une fois, une fois (2012) HDRip- Год выпуска: 2012
Страна: Франция
Жанр: комедия
Продолжительность: 01:35:18
Перевод: Профессиональный, многоголосый закадровый (лицензия)
Режиссер: Кристиан Маррет-Пальмар
Продюссер: Доминик Фарруджия, Доминик Бруннер, Женевьева Лемаль
Сценарий: Александр де Ла Пательер, Матьё Делапорт
В ролях: Франсуа-Ксавье Демезон, Энн Маривин, Жан-Люк Кучар, Чарли Дюпон, Абделхафид Металси, Дидье Фламан, Ксавьер Лемэтр, Стефан Войтович, Джонатан Коэн
Премьера в мире: 19 января 2012
Дата выхода DVD релиза: 27 сентября 2012, «CP Дистрибуция»
-Описание: Сексуальная блондинка Сесиль — девушка с богатым криминальным прошлым, находится в поисках нового «дела». Очередная жертва не заставляет себя долго ждать — мошенница положила глаз на наследного бельгийского принца Вилли, который проживает в шикарном пятизвездочном отеле в Париже. Но авантюристка сама становится жертвой обмана, зато теперь все козыри в ее руках, и с помощью шантажа Сесиль добьется своего!-Качество: HDRip
Формат: AVI
Видео кодек: XviD
Аудио кодек: MP3
Видео: 891 Кбти/сек, 640х336, 23,976 кадров/сек, MPEG-4 Visual (XviD)
Аудио: 128 Кбит/сек, 48,0 КГц, MPEG Audio (MP3), 2 канала

MI:

Общее
Полное имя : D:\µTorrent\µTorrent_OK\Зарубежные\Ograblenie.po.belgijski.2012.P.HDRip.700MB.avi
Формат : AVI
Формат/Информация : Audio Video Interleave
Размер файла : 701 Мбайт
Продолжительность : 1 ч. 35 м.
Общий поток : 1028 Кбит/сек
Программа кодирования : VirtualDubMod 1.5.10.2 (build 2540/release)
Библиотека кодирования : VirtualDubMod build 2540/release
Видео
Идентификатор : 0
Формат : MPEG-4 Visual
Профиль формата : Advanced [email protected]
Параметр BVOP формата : 2
Параметр QPel формата : Нет
Параметр GMC формата : Без точки перехода
Параметр матрицы формата : Выборочная
Идентификатор кодека : XVID
Идентификатор кодека/Подсказка : XviD
Продолжительность : 1 ч. 35 м.
Битрейт : 891 Кбит/сек
Ширина : 640 пикселей
Высота : 336 пикселей
Соотношение сторон : 1,905
Частота кадров : 23,976 кадра/сек
Цветовое пространство : YUV
Субдискретизация насыщенности : 4:2:0
Битовая глубина : 8 бит
Тип развёртки : Прогрессивная
Метод сжатия : С потерями
Бит/(Пиксели*Кадры) : 0.173
Размер потока : 607 Мбайт (87%)
Библиотека кодирования : XviD 1.2.1 (UTC 2008-12-04)
Аудио
Идентификатор : 1
Формат : MPEG Audio
Версия формата : Version 1
Профиль формата : Layer 3
Идентификатор кодека : 55
Идентификатор кодека/Подсказка : MP3
Продолжительность : 1 ч. 35 м.
Вид битрейта : Постоянный
Битрейт : 128 Кбит/сек
Каналы : 2 канала
Частота : 48,0 КГц
Метод сжатия : С потерями
Размер потока : 87,3 Мбайт (12%)
Выравнивание : Соединение по промежуткам
Продолжительность промежутка : 42 мс. (1,00 видеокадр)
Время предзагрузки промежутка : 504 мс.
Библиотека кодирования : LAME3.99r
Настройки программы : -m s -V 4 -q 2 -lowpass 17 -b 128

Скриншоты

                       
Other forum [Profile] [PM]
Display posts from previous:    
Reply to topic

The time now is: Today 03:22

All times are GMT + 3 Hours



You cannot post new topics in this forum
You cannot reply to topics in this forum
You cannot edit your posts in this forum
You cannot delete your posts in this forum
You cannot vote in polls in this forum
You cannot attach files in this forum
You cannot download files in this forum