Today is a free download without charge Download

British Superbike 2012, Этап 8, Cadwell Park, Евроспорт [2012 г., Мотоспорт, SATRip]

Reply to topic
 
Author
Message

Meshanik ®

Gender:

Longevity: 9 years 6 months

Posts: 3866

Location: Los Angeles

Торрент-статистика

Post 29-Sep-2012 22:41

[Quote]

British Superbike 2012, Этап 8, Cadwell Park, Евроспорт-
Год выпуска: 2012 г.
Вид спорта: Мотоспорт
Участники: Tommy Hill, Josh Brookes, Alex Lowes, Noriyuki Haga, Luca Scassa и д.р.
Продолжительность: 01:04:00
Комментарий: Профессиональный (одноголосый, закадровый)
Комментатор: Сергей Бинарук
Язык комментариев: русский
Автор рипа / записи: Mitay-Описание: Британский чемпионат по кольцевым мотогонкам.-Качество видео: SATRip
Формат видео: AVI
Видео кодек: H.264
Аудио кодек: MP3
Видео: 720x576 (1.25:1), 29.970 fps, Intel ITU H.264 ~1637 kbps avg, 0.13 bit/pixel
Аудио: 44.100 kHz, MPEG Layer 3, 2 ch, ~128.00 kbps avg

Составы команд

Yamaha, Suzuki, Kawasaki, Honda, Aprilia, BMW, Ducati

Media Info

Формат : AVI
Формат/Информация : Audio Video Interleave
Размер файла : 413 Мбайт
Продолжительность : 32 м.
Общий поток : 1778 Кбит/сек
Программа кодирования : Lavf52.39.0
Видео
Идентификатор : 0
Формат : AVC
Формат/Информация : Advanced Video Codec
Профиль формата : [email protected]
Параметр CABAC формата : Да
Параметр ReFrames формата : 3 кадра
Идентификатор кодека : H264
Продолжительность : 32 м.
Битрейт : 1637 Кбит/сек
Номинальный битрейт : 2000 Кбит/сек
Ширина : 720 пикселей
Высота : 576 пикселей
Соотношение сторон : 16:9
Частота кадров : 29,970 кадров/сек
Стандарт вещания : PAL
Цветовое пространство : YUV
Субдискретизация насыщенности : 4:2:0
Битовая глубина : 8 бит
Тип развёртки : Прогрессивная
Бит/(Пиксели*Кадры) : 0.132
Размер потока : 380 Мбайт (92%)
Библиотека кодирования : x264 core 77
Настройки программы : cabac=1 / ref=3 / deblock=1:0:0 / analyse=0x3:0x113 / me=hex / subme=7 / psy=1 / psy_rd=1.0:0.0 / mixed_ref=1 / me_range=16 / chroma_me=1 / trellis=1 / 8x8dct=1 / cqm=0 / deadzone=21,11 / chroma_qp_offset=-2 / threads=2 / nr=0 / decimate=1 / mbaff=0 / constrained_intra=0 / bframes=3 / b_pyramid=0 / b_adapt=1 / b_bias=0 / direct=1 / wpredb=32 / keyint=250 / keyint_min=25 / scenecut=40 / rc_lookahead=40 / rc=abr / mbtree=1 / bitrate=2000 / ratetol=1.0 / qcomp=0.60 / qpmin=10 / qpmax=51 / qpstep=4 / ip_ratio=1.41 / aq=1:1.00
Аудио
Идентификатор : 1
Формат : MPEG Audio
Версия формата : Version 1
Профиль формата : Layer 3
Режим : Joint stereo
Расширение режима : MS Stereo
Идентификатор кодека : 55
Идентификатор кодека/Подсказка : MP3
Продолжительность : 32 м.
Вид битрейта : Постоянный
Битрейт : 128 Кбит/сек
Каналы : 2 канала
Частота : 44,1 КГц
Метод сжатия : С потерями
Размер потока : 29,7 Мбайт (7%)
Выравнивание : Соединение по промежуткам
Продолжительность промежутка : 26 мс. (0,78 видеокадр)
Библиотека кодирования : LAME3.98.2ЄЄ

Скриншоты

           
Other forum [Profile] [PM]
Display posts from previous:    
Reply to topic

The time now is: Today 23:43

All times are GMT + 3 Hours



You cannot post new topics in this forum
You cannot reply to topics in this forum
You cannot edit your posts in this forum
You cannot delete your posts in this forum
You cannot vote in polls in this forum
You cannot attach files in this forum
You cannot download files in this forum