Today is a free download without charge Download

Ограбление по-бельгийски / Il etait une fois, une fois (Кристиан Маррет-Пальмар) [2012 г., комедия, HDRip]

Reply to topic
 
Author
Message

Jurchic ®

Longevity: 9 years 7 months

Posts: 42

Location: такое любопытство

Торрент-статистика

Post 29-Sep-2012 22:25

[Quote]

Ограбление по-бельгийски / Il etait une fois, une fois (2012) HDRip- Год выпуска: 2012
Страна: Франция
Жанр: комедия
Продолжительность: 01:35:18
Перевод: Профессиональный (многоголосый закадровый) [лицензия]
Режиссер: Кристиан Маррет-Пальмар
Продюссер: Доминик Фарруджия, Доминик Бруннер, Женевьева Лемаль
Сценарий: Александр де Ла Пательер, Матьё Делапорт
В ролях: Франсуа-Ксавье Демезон, Энн Маривин, Жан-Люк Кучар, Чарли Дюпон, Абделхафид Металси, Дидье Фламан, Ксавьер Лемэтр, Стефан Войтович, Джонатан Коэн
Премьера в мире: 19 января 2012
Дата выхода DVD релиза: 27 сентября 2012, «CP Дистрибуция»
-Описание: Сексуальная блондинка Сесиль — девушка с богатым криминальным прошлым, находится в поисках нового «дела». Очередная жертва не заставляет себя долго ждать — мошенница положила глаз на наследного бельгийского принца Вилли, который проживает в шикарном пятизвездочном отеле в Париже. Но авантюристка сама становится жертвой обмана, зато теперь все козыри в ее руках, и с помощью шантажа Сесиль добьется своего!-Качество: HDRip
Формат: AVI
Видео кодек: XviD
Аудио кодек: AC3
Видео: 1732 Кбит/сек, 720x384, 23,976 кадра/сек, MPEG-4 Visual
Аудио: 48,0 КГц, 6 каналов, 448 Кбит/сек, 16 бит

MediaInfo:

Общее
Полное имя : :\\Ograblenie.po.belgijski.2012.HDRip.avi
Формат : AVI
Формат/Информация : Audio Video Interleave
Размер файла : 1,46 Гбайт
Продолжительность : 1 ч. 35 м.
Общий поток : 2189 Кбит/сек
Программа кодирования : VirtualDubMod 1.5.10.2 (build 2540/release)
Видео
Идентификатор : 0
Формат : MPEG-4 Visual
Профиль формата : Advanced [email protected]
Параметр BVOP формата : 2
Параметр QPel формата : Нет
Параметр GMC формата : Без точки перехода
Параметр матрицы формата : Выборочная
Идентификатор кодека : XVID
Идентификатор кодека/Подсказка : XviD
Продолжительность : 1 ч. 35 м.
Битрейт : 1732 Кбит/сек
Ширина : 720 пикселей
Высота : 384 пикселя
Соотношение сторон : 1,85:1
Частота кадров : 23,976 кадра/сек
Цветовое пространство : YUV
Субдискретизация насыщенности : 4:2:0
Битовая глубина : 8 бит
Тип развёртки : Прогрессивная
Метод сжатия : С потерями
Бит/(Пиксели*Кадры) : 0.261
Размер потока : 1,15 Гбайт (79%)
Библиотека кодирования : XviD 1.2.1 (UTC 2008-12-04)
Аудио
Идентификатор : 1
Формат : AC-3
Формат/Информация : Audio Coding 3
Расширение режима : CM (complete main)
Параметр Endianness формата : Big
Идентификатор кодека : 2000
Продолжительность : 1 ч. 35 м.
Вид битрейта : Постоянный
Битрейт : 448 Кбит/сек
Каналы : 6 каналов
Расположение каналов : Front: L C R, Side: L R, LFE
Частота : 48,0 КГц
Битовая глубина : 16 бит
Метод сжатия : С потерями
Размер потока : 305 Мбайт (20%)
Выравнивание : Разделение по промежуткам
Продолжительность промежутка : 42 мс. (1,00 видеокадр)
Время предзагрузки промежутка : 500 мс.

Скриншоты

               
Other forum [Profile] [PM]
Display posts from previous:    
Reply to topic

The time now is: Today 23:23

All times are GMT + 3 Hours



You cannot post new topics in this forum
You cannot reply to topics in this forum
You cannot edit your posts in this forum
You cannot delete your posts in this forum
You cannot vote in polls in this forum
You cannot attach files in this forum
You cannot download files in this forum