Today is a free download without charge Download

Гардемарины, вперед! (Светлана Дружинина) [1987, СССР, Приключения, история, HDTV 1080i] Rus DTS + sub(rus)

Reply to topic
 
Author
Message

Omen ®

Longevity: 8 years 10 months

Posts: 181086

Торрент-статистика

Post 23-Dec-2016 01:00

[Quote]

Гардемарины, вперед!
Год выпуска: 1987
Страна: СССР
Студия: Мосфильм
Жанр: Приключения, история
Продолжительность: 01:16:19+01:10:19+01:03:04+01:13:14
Субтитры: русские
Оригинальная аудиодорожка: русский
Режиссер: Светлана Дружинина
В ролях: Сергей Жигунов, Дмитрий Харатьян, Владимир Шевельков, Татьяна Лютаева, Михаил Боярский, Евгений Евстигнеев, Владислав Стржельчик, Ольга Машная, Иннокентий Смоктуновский, Виктор Павлов
Описание: Эта история родилась как наш ответ французским "трем мушкетерам", ибо во времена императрицы Елизаветы в России происходили гораздо более захватывающие приключения, чем во Франции. Похищенный архив канцлера Бестужева, вокруг которого разворачивается интрига, может стоить головы многим людям. А для трех гардемаринов, вовлеченных в этот водоворот, существует один главный закон: Была бы честь!

Качество: HDTV 1080i
Формат: MKV
Видео кодек: H.264
Аудио кодек: DTS, MP2
Видео: 1920 x 1080; 25,00 fps; 11,9 Мбит/сек; 8133 Кбит/сек; 10,7 Мбит/сек; 8067 Кбит/сек
Аудио1: Русский, DTS 5.1 755 Kbps 48,0 КГц
Аудио2: Русский, MP2 2.0 192 Kbps 48,0 КГц
Субтитры: Softsub (SRT)
Главы

MediaInfo

Серия 1

Общее
Уникальный идентификатор : 240307400281846372590040674376926066623 (0xB4C9859515134C3CB4451CDB5B1B77BF)
Полное имя : C:\Gardemariny, vpered!\Gardemariny, vpered!.01.1987.HDTV.1080i.mkv
Формат : Matroska
Версия формата : Version 4 / Version 2
Размер файла : 7,00 Гбайт
Продолжительность : 1 ч. 16 м.
Общий поток : 13,1 Мбит/сек
Название фильма : Гардемарины, вперед!.01.1987.HDTV.1080i
Дата кодирования : UTC 2016-12-20 06:59:12
Программа кодирования : mkvmerge v9.2.0 ('Photograph') 32bit
Библиотека кодирования : Lavf54.63.104
DURATION : 01:15:17.218000000
NUMBER_OF_FRAMES : 893
NUMBER_OF_BYTES : 43943
_STATISTICS_WRITING_APP : mkvmerge v9.2.0 ('Photograph') 32bit
_STATISTICS_WRITING_DATE_UTC : 2016-12-20 06:59:12
_STATISTICS_TAGS : BPS DURATION NUMBER_OF_FRAMES NUMBER_OF_BYTES
Видео
Идентификатор : 1
Формат : AVC
Формат/Информация : Advanced Video Codec
Профиль формата : [email protected]
Параметр CABAC формата : Да
Параметр ReFrames формата : 4 кадра
Параметр GOP формата : M=4, N=28
Идентификатор кодека : V_MPEG4/ISO/AVC
Продолжительность : 1 ч. 16 м.
Битрейт : 11,9 Мбит/сек
Ширина : 1920 пикселей
Высота : 1080 пикселей
Соотношение сторон : 16:9
Режим частоты кадров : Постоянный
Частота кадров : 25,000 кадров/сек
Стандарт вещания : Component
Цветовое пространство : YUV
Субдискретизация насыщенности : 4:2:0
Битовая глубина : 8 бит
Тип развёртки : Чересстрочная
Порядок развёртки : Верхнее поле первое
Бит/(Пиксели*Кадры) : 0.230
Размер потока : 6,35 Гбайт (91%)
Заголовок : Гардемарины, вперед!.01.1987.HDTV.1080i
Default : Нет
Forced : Нет
Цветовой диапазон : Limited
Основные цвета : BT.709
Характеристики трансфера : BT.709
Коэффициенты матрицы : BT.709
DURATION : 01:16:19.400000000
NUMBER_OF_FRAMES : 114485
NUMBER_OF_BYTES : 6970002577
_STATISTICS_WRITING_APP : mkvmerge v9.2.0 ('Photograph') 32bit
_STATISTICS_WRITING_DATE_UTC : 2016-12-20 06:59:12
_STATISTICS_TAGS : BPS DURATION NUMBER_OF_FRAMES NUMBER_OF_BYTES
Аудио #1
Идентификатор : 2
Формат : DTS
Формат/Информация : Digital Theater Systems
Режим : 16
Параметр Endianness формата : Big
Идентификатор кодека : A_DTS
Продолжительность : 1 ч. 16 м.
Вид битрейта : Постоянный
Битрейт : 755 Кбит/сек
Каналы : 6 каналов
Расположение каналов : Front: L C R, Side: L R, LFE
Частота : 48,0 КГц
Битовая глубина : 24 бит
Метод сжатия : С потерями
Размер потока : 412 Мбайт (6%)
Заголовок : DTS 5.1 755 kbps
Язык : Russian
Default : Нет
Forced : Нет
Аудио #2
Идентификатор : 3
Формат : MPEG Audio
Версия формата : Version 1
Профиль формата : Layer 2
Идентификатор кодека : A_MPEG/L2
Идентификатор кодека/Подсказка : MP2
Продолжительность : 1 ч. 16 м.
Вид битрейта : Постоянный
Битрейт : 192 Кбит/сек
Каналы : 2 канала
Частота : 48,0 КГц
Метод сжатия : С потерями
Размер потока : 105 Мбайт (1%)
Заголовок : MP2 2.0 192 kbps
Язык : Russian
Default : Нет
Forced : Нет
Текст
Идентификатор : 4
Формат : UTF-8
Идентификатор кодека : S_TEXT/UTF8
Идентификатор кодека/Информация : UTF-8 Plain Text
Язык : Russian
Default : Нет
Forced : Нет
Меню
00:00:00.000 : en:Chapter 1
00:10:00.000 : en:Chapter 2
00:21:28.000 : en:Chapter 3
00:37:32.000 : en:Chapter 4
00:51:14.000 : en:Chapter 5
01:03:47.000 : en:Chapter 6
01:16:18.000 : en:Chapter 7

Серия 2

Общее
Уникальный идентификатор : 202851798609810604347447914586222787037 (0x989BD5D7A1FA8B1EADE53223619279DD)
Полное имя : C:\Gardemariny, vpered!\Gardemariny, vpered!.02.1987.HDTV.1080i.mkv
Формат : Matroska
Версия формата : Version 4 / Version 2
Размер файла : 4,55 Гбайт
Продолжительность : 1 ч. 10 м.
Общий поток : 9264 Кбит/сек
Название фильма : Гардемарины, вперед!.02.1987.HDTV.1080i
Дата кодирования : UTC 2016-12-22 09:21:44
Программа кодирования : mkvmerge v9.2.0 ('Photograph') 32bit
Библиотека кодирования : Lavf54.63.104
DURATION : 01:09:16.777000000
NUMBER_OF_FRAMES : 843
NUMBER_OF_BYTES : 40800
_STATISTICS_WRITING_APP : mkvmerge v9.2.0 ('Photograph') 32bit
_STATISTICS_WRITING_DATE_UTC : 2016-12-22 09:21:44
_STATISTICS_TAGS : BPS DURATION NUMBER_OF_FRAMES NUMBER_OF_BYTES
Видео
Идентификатор : 1
Формат : AVC
Формат/Информация : Advanced Video Codec
Профиль формата : [email protected]
Параметр CABAC формата : Да
Параметр ReFrames формата : 4 кадра
Параметр GOP формата : M=4, N=28
Идентификатор кодека : V_MPEG4/ISO/AVC
Продолжительность : 1 ч. 10 м.
Битрейт : 8133 Кбит/сек
Ширина : 1920 пикселей
Высота : 1080 пикселей
Соотношение сторон : 16:9
Режим частоты кадров : Постоянный
Частота кадров : 25,000 кадров/сек
Стандарт вещания : Component
Цветовое пространство : YUV
Субдискретизация насыщенности : 4:2:0
Битовая глубина : 8 бит
Тип развёртки : Чересстрочная
Порядок развёртки : Верхнее поле первое
Бит/(Пиксели*Кадры) : 0.157
Размер потока : 4,00 Гбайт (88%)
Заголовок : Гардемарины, вперед!.02.1987.HDTV.1080i
Default : Нет
Forced : Нет
Цветовой диапазон : Limited
Основные цвета : BT.709
Характеристики трансфера : BT.709
Коэффициенты матрицы : BT.709
DURATION : 01:10:19.240000000
NUMBER_OF_FRAMES : 105481
NUMBER_OF_BYTES : 4386915205
_STATISTICS_WRITING_APP : mkvmerge v9.2.0 ('Photograph') 32bit
_STATISTICS_WRITING_DATE_UTC : 2016-12-22 09:21:44
_STATISTICS_TAGS : BPS DURATION NUMBER_OF_FRAMES NUMBER_OF_BYTES
Аудио #1
Идентификатор : 2
Формат : DTS
Формат/Информация : Digital Theater Systems
Режим : 16
Параметр Endianness формата : Big
Идентификатор кодека : A_DTS
Продолжительность : 1 ч. 10 м.
Вид битрейта : Постоянный
Битрейт : 755 Кбит/сек
Каналы : 6 каналов
Расположение каналов : Front: L C R, Side: L R, LFE
Частота : 48,0 КГц
Битовая глубина : 24 бит
Метод сжатия : С потерями
Размер потока : 380 Мбайт (8%)
Заголовок : DTS 5.1 755 kbps
Язык : Russian
Default : Нет
Forced : Нет
Аудио #2
Идентификатор : 3
Формат : MPEG Audio
Версия формата : Version 1
Профиль формата : Layer 2
Идентификатор кодека : A_MPEG/L2
Идентификатор кодека/Подсказка : MP2
Продолжительность : 1 ч. 10 м.
Вид битрейта : Постоянный
Битрейт : 192 Кбит/сек
Каналы : 2 канала
Частота : 48,0 КГц
Метод сжатия : С потерями
Размер потока : 96,6 Мбайт (2%)
Заголовок : MP2 2.0 192 kbps
Язык : Russian
Default : Нет
Forced : Нет
Текст
Идентификатор : 4
Формат : UTF-8
Идентификатор кодека : S_TEXT/UTF8
Идентификатор кодека/Информация : UTF-8 Plain Text
Язык : Russian
Default : Нет
Forced : Нет
Меню
00:00:00.000 : en:Chapter 1
00:11:23.640 : en:Chapter 2
00:27:53.520 : en:Chapter 3
00:41:52.680 : en:Chapter 4
00:52:02.760 : en:Chapter 5
01:01:29.760 : en:Chapter 6
01:10:19.000 : en:Chapter 7

Серия 3

Общее
Уникальный идентификатор : 216998252865627249522236026669665055023 (0xA34057E2FDC6575CA057A1AA816F712F)
Полное имя : C:\Gardemariny, vpered!\Gardemariny, vpered!.03.1987.HDTV.1080i.mkv
Формат : Matroska
Версия формата : Version 4 / Version 2
Размер файла : 5,25 Гбайт
Продолжительность : 1 ч. 3 м.
Общий поток : 11,9 Мбит/сек
Название фильма : Гардемарины, вперед!.03.1987.HDTV.1080i
Дата кодирования : UTC 2016-12-22 08:27:51
Программа кодирования : mkvmerge v9.2.0 ('Photograph') 32bit
Библиотека кодирования : Lavf54.63.104
DURATION : 01:02:37.458000000
NUMBER_OF_FRAMES : 690
NUMBER_OF_BYTES : 30417
_STATISTICS_WRITING_APP : mkvmerge v9.2.0 ('Photograph') 32bit
_STATISTICS_WRITING_DATE_UTC : 2016-12-22 08:27:51
_STATISTICS_TAGS : BPS DURATION NUMBER_OF_FRAMES NUMBER_OF_BYTES
Видео
Идентификатор : 1
Формат : AVC
Формат/Информация : Advanced Video Codec
Профиль формата : [email protected]
Параметр CABAC формата : Да
Параметр ReFrames формата : 4 кадра
Параметр GOP формата : M=4, N=28
Идентификатор кодека : V_MPEG4/ISO/AVC
Продолжительность : 1 ч. 3 м.
Битрейт : 10,7 Мбит/сек
Ширина : 1920 пикселей
Высота : 1080 пикселей
Соотношение сторон : 16:9
Режим частоты кадров : Постоянный
Частота кадров : 25,000 кадров/сек
Стандарт вещания : Component
Цветовое пространство : YUV
Субдискретизация насыщенности : 4:2:0
Битовая глубина : 8 бит
Тип развёртки : Чересстрочная
Порядок развёртки : Верхнее поле первое
Бит/(Пиксели*Кадры) : 0.207
Размер потока : 4,73 Гбайт (90%)
Заголовок : Гардемарины, вперед!.03.1987.HDTV.1080i
Default : Нет
Forced : Нет
Цветовой диапазон : Limited
Основные цвета : BT.709
Характеристики трансфера : BT.709
Коэффициенты матрицы : BT.709
DURATION : 01:03:04.520000000
NUMBER_OF_FRAMES : 94613
NUMBER_OF_BYTES : 5189007922
_STATISTICS_WRITING_APP : mkvmerge v9.2.0 ('Photograph') 32bit
_STATISTICS_WRITING_DATE_UTC : 2016-12-22 08:27:51
_STATISTICS_TAGS : BPS DURATION NUMBER_OF_FRAMES NUMBER_OF_BYTES
Аудио #1
Идентификатор : 2
Формат : DTS
Формат/Информация : Digital Theater Systems
Режим : 16
Параметр Endianness формата : Big
Идентификатор кодека : A_DTS
Продолжительность : 1 ч. 3 м.
Вид битрейта : Постоянный
Битрейт : 755 Кбит/сек
Каналы : 6 каналов
Расположение каналов : Front: L C R, Side: L R, LFE
Частота : 48,0 КГц
Битовая глубина : 24 бит
Метод сжатия : С потерями
Размер потока : 340 Мбайт (6%)
Заголовок : DTS 5.1 755 kbps
Язык : Russian
Default : Нет
Forced : Нет
Аудио #2
Идентификатор : 3
Формат : MPEG Audio
Версия формата : Version 1
Профиль формата : Layer 2
Идентификатор кодека : A_MPEG/L2
Идентификатор кодека/Подсказка : MP2
Продолжительность : 1 ч. 3 м.
Вид битрейта : Постоянный
Битрейт : 192 Кбит/сек
Каналы : 2 канала
Частота : 48,0 КГц
Метод сжатия : С потерями
Размер потока : 86,6 Мбайт (2%)
Заголовок : MP2 2.0 192 kbps
Язык : Russian
Default : Нет
Forced : Нет
Текст
Идентификатор : 4
Формат : UTF-8
Идентификатор кодека : S_TEXT/UTF8
Идентификатор кодека/Информация : UTF-8 Plain Text
Язык : Russian
Default : Нет
Forced : Нет
Меню
00:00:00.000 : en:Chapter 1
00:09:59.000 : en:Chapter 2
00:24:01.000 : en:Chapter 3
00:35:46.000 : en:Chapter 4
00:48:34.000 : en:Chapter 5
00:57:03.000 : en:Chapter 6
01:03:02.000 : en:Chapter 7

Серия 4

Общее
Уникальный идентификатор : 211393085752304142498038265944416851843 (0x9F08D3CFBE91A5CF9C91A853853E1783)
Полное имя : C:\Gardemariny, vpered!\Gardemariny, vpered!.04.1987.HDTV.1080i.mkv
Формат : Matroska
Версия формата : Version 4 / Version 2
Размер файла : 4,70 Гбайт
Продолжительность : 1 ч. 13 м.
Общий поток : 9197 Кбит/сек
Название фильма : Гардемарины, вперед!.04.1987.HDTV.1080i
Дата кодирования : UTC 2016-12-18 15:38:16
Программа кодирования : mkvmerge v9.2.0 ('Photograph') 32bit
Библиотека кодирования : Lavf54.63.104
DURATION : 01:12:52.272000000
NUMBER_OF_FRAMES : 833
NUMBER_OF_BYTES : 41888
_STATISTICS_WRITING_APP : mkvmerge v9.2.0 ('Photograph') 32bit
_STATISTICS_WRITING_DATE_UTC : 2016-12-18 15:38:16
_STATISTICS_TAGS : BPS DURATION NUMBER_OF_FRAMES NUMBER_OF_BYTES
Видео
Идентификатор : 1
Формат : AVC
Формат/Информация : Advanced Video Codec
Профиль формата : [email protected]
Параметр CABAC формата : Да
Параметр ReFrames формата : 4 кадра
Параметр GOP формата : M=4, N=28
Идентификатор кодека : V_MPEG4/ISO/AVC
Продолжительность : 1 ч. 13 м.
Битрейт : 8067 Кбит/сек
Ширина : 1920 пикселей
Высота : 1080 пикселей
Соотношение сторон : 16:9
Режим частоты кадров : Постоянный
Частота кадров : 25,000 кадров/сек
Стандарт вещания : Component
Цветовое пространство : YUV
Субдискретизация насыщенности : 4:2:0
Битовая глубина : 8 бит
Тип развёртки : Чересстрочная
Порядок развёртки : Верхнее поле первое
Бит/(Пиксели*Кадры) : 0.156
Размер потока : 4,13 Гбайт (88%)
Заголовок : Гардемарины, вперед!.04.1987.HDTV.1080i
Default : Нет
Forced : Нет
Цветовой диапазон : Limited
Основные цвета : BT.709
Характеристики трансфера : BT.709
Коэффициенты матрицы : BT.709
DURATION : 01:13:14.360000000
NUMBER_OF_FRAMES : 109859
NUMBER_OF_BYTES : 4530154210
_STATISTICS_WRITING_APP : mkvmerge v9.2.0 ('Photograph') 32bit
_STATISTICS_WRITING_DATE_UTC : 2016-12-18 15:38:16
_STATISTICS_TAGS : BPS DURATION NUMBER_OF_FRAMES NUMBER_OF_BYTES
Аудио #1
Идентификатор : 2
Формат : DTS
Формат/Информация : Digital Theater Systems
Режим : 16
Параметр Endianness формата : Big
Идентификатор кодека : A_DTS
Продолжительность : 1 ч. 13 м.
Вид битрейта : Постоянный
Битрейт : 755 Кбит/сек
Каналы : 6 каналов
Расположение каналов : Front: L C R, Side: L R, LFE
Частота : 48,0 КГц
Битовая глубина : 24 бит
Метод сжатия : С потерями
Размер потока : 395 Мбайт (8%)
Заголовок : DTS 5.1 755 kbps
Язык : Russian
Default : Нет
Forced : Нет
Аудио #2
Идентификатор : 3
Формат : MPEG Audio
Версия формата : Version 1
Профиль формата : Layer 2
Идентификатор кодека : A_MPEG/L2
Идентификатор кодека/Подсказка : MP2
Продолжительность : 1 ч. 13 м.
Вид битрейта : Постоянный
Битрейт : 192 Кбит/сек
Каналы : 2 канала
Частота : 48,0 КГц
Метод сжатия : С потерями
Размер потока : 101 Мбайт (2%)
Заголовок : MP2 2.0 192 kbps
Язык : Russian
Default : Нет
Forced : Нет
Текст
Идентификатор : 4
Формат : UTF-8
Идентификатор кодека : S_TEXT/UTF8
Идентификатор кодека/Информация : UTF-8 Plain Text
Язык : Russian
Default : Нет
Forced : Нет
Меню
00:00:00.000 : en:Chapter 1
00:13:36.000 : en:Chapter 2
00:26:40.000 : en:Chapter 3
00:40:23.000 : en:Chapter 4
00:52:11.000 : en:Chapter 5
00:59:37.000 : en:Chapter 6
01:13:13.000 : en:Chapter 7

Скриншоты



Other forum [Profile] [PM]
Display posts from previous:    
Reply to topic

The time now is: Today 14:41

All times are GMT + 3 Hours



You cannot post new topics in this forum
You cannot reply to topics in this forum
You cannot edit your posts in this forum
You cannot delete your posts in this forum
You cannot vote in polls in this forum
You cannot attach files in this forum
You cannot download files in this forum