Today is a free download without charge Download

World Superbike 2012, Этап 12, Nurburgring,<wbr> НТВ+ [2012 г., Мотоспорт, SATRip]

Reply to topic
 
Author
Message

Meshanik ®

Gender:

Longevity: 9 years 6 months

Posts: 3866

Location: Los Angeles

Торрент-статистика

Post 29-Sep-2012 09:57

[Quote]

-World Superbike 2012, Этап 12, Nurburgring--
Год выпуска: 2012 г.
Вид спорта: Мотоспорт
Участники: Карлос Чека, Макс Бьяджи, Марко Меландри, Леон Камьер, Том Сайкс и д.р.
Продолжительность: 03:13:00
Комментарий: Профессиональный (двухголосый, закадровый)
Комментатор: Андрей Бойко и Сергей Власов
Язык комментариев: русский
Автор рипа / записи: Mitay & poligraph--Описание: Всемирный супербайк. Гонки Суперсток1000, Суперсток600 и первая гонка Супербайка в качестве SatRip, а вторая гонка Супербайка в качестве HDTvRip от poligraph.--Качество видео: SATRip
Формат видео: AVI
Видео кодек: H.264
Аудио кодек: MP3
Видео: 720x576 (1.25:1), 29.970 fps, Intel ITU H.264 ~1635 kbps avg, 0.13 bit/pixel
Аудио: 44.100 kHz, MPEG Layer 3, 2 ch, ~128.00 kbps avg--

Составы команд

Ducati, Aprilia, Honda, Kawasaki, BMW

Media Info

Формат : AVI
Формат/Информация : Audio Video Interleave
Размер файла : 816 Мбайт
Продолжительность : 1 ч. 4 м.
Общий поток : 1776 Кбит/сек
Программа кодирования : Lavf52.39.0
Видео
Идентификатор : 0
Формат : AVC
Формат/Информация : Advanced Video Codec
Профиль формата : [email protected]
Параметр CABAC формата : Да
Параметр ReFrames формата : 3 кадра
Идентификатор кодека : H264
Продолжительность : 1 ч. 4 м.
Битрейт : 1635 Кбит/сек
Номинальный битрейт : 2000 Кбит/сек
Ширина : 720 пикселей
Высота : 576 пикселей
Соотношение сторон : 16:9
Частота кадров : 29,970 кадров/сек
Стандарт вещания : PAL
Цветовое пространство : YUV
Субдискретизация насыщенности : 4:2:0
Битовая глубина : 8 бит
Тип развёртки : Прогрессивная
Бит/(Пиксели*Кадры) : 0.132
Размер потока : 752 Мбайт (92%)
Библиотека кодирования : x264 core 77
Настройки программы : cabac=1 / ref=3 / deblock=1:0:0 / analyse=0x3:0x113 / me=hex / subme=7 / psy=1 / psy_rd=1.0:0.0 / mixed_ref=1 / me_range=16 / chroma_me=1 / trellis=1 / 8x8dct=1 / cqm=0 / deadzone=21,11 / chroma_qp_offset=-2 / threads=2 / nr=0 / decimate=1 / mbaff=0 / constrained_intra=0 / bframes=3 / b_pyramid=0 / b_adapt=1 / b_bias=0 / direct=1 / wpredb=32 / keyint=250 / keyint_min=25 / scenecut=40 / rc_lookahead=40 / rc=abr / mbtree=1 / bitrate=2000 / ratetol=1.0 / qcomp=0.60 / qpmin=10 / qpmax=51 / qpstep=4 / ip_ratio=1.41 / aq=1:1.00
Аудио
Идентификатор : 1
Формат : MPEG Audio
Версия формата : Version 1
Профиль формата : Layer 3
Режим : Joint stereo
Расширение режима : MS Stereo
Идентификатор кодека : 55
Идентификатор кодека/Подсказка : MP3
Продолжительность : 1 ч. 4 м.
Вид битрейта : Постоянный
Битрейт : 128 Кбит/сек
Каналы : 2 канала
Частота : 44,1 КГц
Метод сжатия : С потерями
Размер потока : 58,8 Мбайт (7%)
Выравнивание : Соединение по промежуткам
Продолжительность промежутка : 26 мс. (0,78 видеокадр)

Media Info Второй гонки Супербайка

Формат : Matroska
Версия формата : Version 2
Размер файла : 1,32 Гбайт
Продолжительность : 36 м.
Общий поток : 5193 Кбит/сек
Программа кодирования : Lavf54.25.105
Библиотека кодирования : Lavf54.25.105
Видео
Идентификатор : 1
Формат : AVC
Формат/Информация : Advanced Video Codec
Профиль формата : [email protected]
Параметр CABAC формата : Да
Параметр ReFrames формата : 4 кадра
Идентификатор кодека : V_MPEG4/ISO/AVC
Продолжительность : 36 м.
Битрейт : 5000 Кбит/сек
Ширина : 1280 пикселей
Высота : 720 пикселей
Соотношение сторон : 16:9
Режим частоты кадров : Переменный
Частота кадров : 25,000 кадров/сек
Цветовое пространство : YUV
Субдискретизация насыщенности : 4:2:0
Битовая глубина : 8 бит
Тип развёртки : Прогрессивная
Бит/(Пиксели*Кадры) : 0.217
Размер потока : 1,25 Гбайт (94%)
Библиотека кодирования : x264 core 125 r2208 d9d2288
Настройки программы : cabac=1 / ref=3 / deblock=1:-1:-1 / analyse=0x3:0x113 / me=hex / subme=7 / psy=1 / psy_rd=1.00:0.15 / mixed_ref=1 / me_range=16 / chroma_me=1 / trellis=1 / 8x8dct=1 / cqm=0 / deadzone=21,11 / fast_pskip=1 / chroma_qp_offset=-3 / threads=8 / lookahead_threads=1 / sliced_threads=0 / nr=0 / decimate=1 / interlaced=0 / bluray_compat=0 / constrained_intra=0 / bframes=3 / b_pyramid=2 / b_adapt=1 / b_bias=0 / direct=1 / weightb=1 / open_gop=0 / weightp=2 / keyint=250 / keyint_min=25 / scenecut=40 / intra_refresh=0 / rc_lookahead=40 / rc=2pass / mbtree=1 / bitrate=5000 / ratetol=1.0 / qcomp=0.60 / qpmin=0 / qpmax=69 / qpstep=4 / cplxblur=20.0 / qblur=0.5 / ip_ratio=1.40 / aq=1:1.00
Default : Да
Forced : Нет
Аудио
Идентификатор : 2
Формат : MPEG Audio
Версия формата : Version 1
Профиль формата : Layer 3
Режим : Joint stereo
Расширение режима : MS Stereo
Идентификатор кодека : A_MPEG/L3
Идентификатор кодека/Подсказка : MP3
Продолжительность : 36 м.
Вид битрейта : Постоянный
Битрейт : 192 Кбит/сек
Каналы : 2 канала
Частота : 48,0 КГц
Метод сжатия : С потерями
Задержка видео : 1 м. 5 с.
Размер потока : 50,1 Мбайт (4%)
Язык : Russian
Default : Да
Forced : Нет

Скриншоты

           
Other forum [Profile] [PM]
Display posts from previous:    
Reply to topic

The time now is: Today 08:30

All times are GMT + 3 Hours



You cannot post new topics in this forum
You cannot reply to topics in this forum
You cannot edit your posts in this forum
You cannot delete your posts in this forum
You cannot vote in polls in this forum
You cannot attach files in this forum
You cannot download files in this forum