Today is a free download without charge Download

Играй до смерти / Truth or Dare (Роберт Хит) [2012, Ужасы, Триллер, 720p BDRip]

Reply to topic
 
Author
Message

Meshanik ®

Gender:

Longevity: 8 years 10 months

Posts: 3866

Location: Los Angeles

Торрент-статистика

Post 29-Sep-2012 09:15

[Quote]

Играй до смерти / Truth or Dare
« Правда тебя убьёт! »
-- Русское название: Играй до смерти
Оригинальное название: Truth or Dare
Год выпуска: 2012
Производство: Великобритания / Corona Pictures
Жанр: Ужасы, Триллер
Продолжительность: 01:35:26
Перевод: Дублированный [лицензия]
Субтитры: Отсутствуют--Премьера (мир): 6 августа 2012, ...
Премьера (РФ): 29 марта 2012, «Каравелла DDC»
Релиз на DVD: 25 апреля 2012, «Кармен Видео», ...
Режиссер: Роберт Хит
Актеры: Лайам Бойл, Джек Гордон, Флоренс Холл, Никки Хенсон, Дженни Жак, Томас Кейн, Джейсон Мацца, Дэвид Оукс, Дэвид Стерн--Описание фильма: Пятеро студентов собираются отметить завершение сессии несколькими раундами любимой игры «Правда или желание» в загородном особняке. Спустя несколько месяцев участников игры собирает странноватый брат одного из студентов, сведшего счеты с жизнью. Парень хочет выяснить причины самоубийства и вынуждает собравшихся начать игру, которую можно завершить только вместе со смертью…
--
--Качество видео: BDRip
Видеокодек: MPEG-4 AVC/H.264
Битрейт видео: ~5031 Кбит/сек
Размер кадра: 1280x536
Аудио #1: Русский (Dolby AC3, 6 ch) 384 Кбит/сек
Аудио #2: Английский (DTS, 6 ch) 1510 Кбит/сек
--

MediaInfo

Код:
Общее
Уникальный идентификатор         : 191804330363138642689389024157164124279 (0x904C2B9ACF284EBBB48031EAFC343877)
Полное имя                       : H:\Truth.or.dare.2012.D.BDRip.720p.mkv
Формат                           : Matroska
Версия формата                   : Version 2
Размер файла                     : 4,62 Гбайт
Продолжительность                : 1 ч. 35 м.
Общий поток                      : 6927 Кбит/сек
Дата кодирования                 : UTC 2012-08-30 03:24:15
Программа кодирования            : mkvmerge v5.7.0 ('The Whirlwind') built on Jul  8 2012 20:08:51
Библиотека кодирования           : libebml v1.2.3 + libmatroska v1.3.0
Видео
Идентификатор                    : 1
Формат                           : AVC
Формат/Информация                : Advanced Video Codec
Профиль формата                  : [email protected]
Параметр CABAC формата           : Да
Параметр ReFrames формата        : 5 кадров
Идентификатор кодека             : V_MPEG4/ISO/AVC
Продолжительность                : 1 ч. 35 м.
Битрейт                          : 5031 Кбит/сек
Ширина                           : 1280 пикселей
Высота                           : 536 пикселей
Соотношение сторон               : 2,40:1
Частота кадров                   : 23,976 кадра/сек
Цветовое пространство            : YUV
Субдискретизация насыщенности    : 4:2:0
Битовая глубина                  : 8 бит
Тип развёртки                    : Прогрессивная
Бит/(Пиксели*Кадры)              : 0.306
Размер потока                    : 3,26 Гбайт (71%)
Библиотека кодирования           : x264 core 125 r2208 d9d2288
Настройки программы              : cabac=1 / ref=5 / deblock=1:0:0 / analyse=0x3:0x133 / me=umh / subme=7 / psy=1 / psy_rd=1.00:0.00 / mixed_ref=1 / me_range=16 / chroma_me=1 / trellis=1 / 8x8dct=1 / cqm=0 / deadzone=21,11 / fast_pskip=0 / chroma_qp_offset=-2 / threads=12 / lookahead_threads=2 / sliced_threads=0 / nr=0 / decimate=1 / interlaced=0 / bluray_compat=0 / constrained_intra=0 / bframes=3 / b_pyramid=2 / b_adapt=2 / b_bias=0 / direct=3 / weightb=1 / open_gop=0 / weightp=2 / keyint=250 / keyint_min=23 / scenecut=40 / intra_refresh=0 / rc_lookahead=50 / rc=2pass / mbtree=1 / bitrate=5031 / ratetol=1.0 / qcomp=0.60 / qpmin=0 / qpmax=69 / qpstep=4 / cplxblur=20.0 / qblur=0.5 / ip_ratio=1.40 / aq=1:1.00
Язык                             : English
Default                          : Да
Forced                           : Нет
Аудио #1
Идентификатор                    : 2
Формат                           : AC-3
Формат/Информация                : Audio Coding 3
Расширение режима                : CM (complete main)
Идентификатор кодека             : A_AC3
Продолжительность                : 1 ч. 35 м.
Вид битрейта                     : Постоянный
Битрейт                          : 384 Кбит/сек
Каналы                           : 6 каналов
Расположение каналов             : Front: L C R, Side: L R, LFE
Частота                          : 48,0 КГц
Битовая глубина                  : 16 бит
Метод сжатия                     : С потерями
Задержка видео                   : 4 с. 144 мс.
Размер потока                    : 262 Мбайт (6%)
Заголовок                        : DUB
Язык                             : Russian
Default                          : Да
Forced                           : Нет
Аудио #2
Идентификатор                    : 3
Формат                           : DTS
Формат/Информация                : Digital Theater Systems
Идентификатор кодека             : A_DTS
Продолжительность                : 1 ч. 35 м.
Вид битрейта                     : Постоянный
Битрейт                          : 1510 Кбит/сек
Каналы                           : 6 каналов
Расположение каналов             : Front: L C R, Side: L R, LFE
Частота                          : 48,0 КГц
Битовая глубина                  : 24 бит
Метод сжатия                     : С потерями
Размер потока                    : 1,01 Гбайт (22%)
Язык                             : English
Default                          : Нет
Forced                           : Нет
Скриншоты:
       
Other forum [Profile] [PM]
Display posts from previous:    
Reply to topic

The time now is: Today 12:16

All times are GMT + 3 Hours



You cannot post new topics in this forum
You cannot reply to topics in this forum
You cannot edit your posts in this forum
You cannot delete your posts in this forum
You cannot vote in polls in this forum
You cannot attach files in this forum
You cannot download files in this forum