Today is a free download without charge Download

Три часа на побег / À bout portant (Фред Кавайе) [2010 г., боевик, триллер, криминал, BDRip]

Reply to topic
 
Author
Message

Jurchic ®

Longevity: 9 years 7 months

Posts: 42

Location: такое любопытство

Торрент-статистика

Post 28-Sep-2012 19:43

[Quote]

Три часа на побег / À bout portant (2010) BDRip«Только три часа, чтобы спасти жену и доказать свою невиновность»- Год выпуска: 2010
Страна: Франция
Жанр: боевик, триллер, криминал
Продолжительность: 01:24:01
Перевод: Авторский (одноголосый закадровый - Гаврилов)
Режиссер: Фред Кавайе
Продюссер: Сирил Колбо-Жустин, Жан-Баптист Дюпон, Джереми Бурдек
Сценарий: Фред Кавайе, Гийом Леман
В ролях: Жилль Леллуш, Рошди Зем, Жерар Ланвен, Елена Анайя, Мирей Перье, Клер Перо, Мусса Мааскри, Пьер Бенуа, Валери Дэшвуд, Вёрджил Брэмли
Бюджет: $16 000 000
Премьера в мире: 1 ноября 2010

-Описание: Профессия Сэмюэля Перрье — спасать людей. Но в этот раз медбрат спас ну совсем «не того» парня. И вот теперь его беременную жену похитили бандиты, чтоб заставить Сэмюэля помочь их пахану свалить из больницы. Чтобы спасти жену и выжить самому, ему предстоит выиграть смертельные гонки на выживание с бандитами и полицейскими не только по улицам Парижа, но и под землей.-Качество: BDRip
Формат: AVI
Видео кодек: XviD
Аудио кодек: AC3
Видео: 2031 Кбит/сек, 720х304, 24,000 кадра/сек, MPEG-4 Visual
Аудио: 48,0 КГц, 6 каналов, 448 Кбит/сек, 16 бит

MediaInfo:

Общее
Полное имя : :\\Tri.chasa.na.pobeg.2010.BDRip.avi
Формат : AVI
Формат/Информация : Audio Video Interleave
Размер файла : 1,46 Гбайт
Продолжительность : 1 ч. 24 м.
Общий поток : 2488 Кбит/сек
Программа кодирования : VirtualDubMod 1.5.10.3 | www.virtualdub-fr.org || (build 2550/release)
Библиотека кодирования : VirtualDubMod build 2550/release
Видео
Идентификатор : 0
Формат : MPEG-4 Visual
Профиль формата : Advanced [email protected]
Параметр BVOP формата : 1
Параметр QPel формата : Нет
Параметр GMC формата : Без точки перехода
Параметр матрицы формата : Выборочная
Идентификатор кодека : XVID
Идентификатор кодека/Подсказка : XviD
Продолжительность : 1 ч. 24 м.
Битрейт : 2031 Кбит/сек
Ширина : 720 пикселей
Высота : 304 пикселя
Соотношение сторон : 2,35:1
Частота кадров : 24,000 кадра/сек
Цветовое пространство : YUV
Субдискретизация насыщенности : 4:2:0
Битовая глубина : 8 бит
Тип развёртки : Прогрессивная
Метод сжатия : С потерями
Бит/(Пиксели*Кадры) : 0.387
Размер потока : 1,19 Гбайт (82%)
Библиотека кодирования : XviD 65
Аудио
Идентификатор : 1
Формат : AC-3
Формат/Информация : Audio Coding 3
Расширение режима : CM (complete main)
Параметр Endianness формата : Big
Идентификатор кодека : 2000
Продолжительность : 1 ч. 24 м.
Вид битрейта : Постоянный
Битрейт : 448 Кбит/сек
Каналы : 6 каналов
Расположение каналов : Front: L C R, Side: L R, LFE
Частота : 48,0 КГц
Битовая глубина : 16 бит
Метод сжатия : С потерями
Размер потока : 269 Мбайт (18%)
Выравнивание : Разделение по промежуткам
Продолжительность промежутка : 42 мс. (1,00 видеокадр)
Время предзагрузки промежутка : 500 мс.

Скриншоты

               
Other forum [Profile] [PM]
Display posts from previous:    
Reply to topic

The time now is: Today 01:27

All times are GMT + 3 Hours



You cannot post new topics in this forum
You cannot reply to topics in this forum
You cannot edit your posts in this forum
You cannot delete your posts in this forum
You cannot vote in polls in this forum
You cannot attach files in this forum
You cannot download files in this forum