Today is a free download without charge Download

Параллельные миры / Upside Down (Хуан Диего Соланас) [2012 г., фэнтези, мелодрама, BDRip 720р]

Reply to topic
 
Author
Message

sassad ®

Gender:

Longevity: 10 years

Posts: 1214

Location: Галич

Торрент-статистика

Post 28-Sep-2012 19:32

[Quote]

Параллельные миры / Upside Down- Год выпуска: 2012
Страна: Канада, Франция
Жанр: фэнтези, мелодрама
Продолжительность: 113 мин. / 01:53
Перевод: Профессиональный(дублированный)-Режиссер: Хуан Диего Соланас
Продюссер: Харрис Демель, Алексис Вонарб, Клод Леже
Сценарий: Сантьяго Амигорена, Харрис Демель, Хуан Диего Соланас
Бюджет: $5 927 738
Премьера в мире: 22 августа 2012
5.80 (451)

В ролях: Кирстен Данст, Джим Стёрджесс, Стелла Маив, Нил Напье, Джэйн Хейтмейер, Холли О’Брайэн, Ларри Дэй, Агнешка Вроновска, Джон МакЛарен, Дон Джордан, Джеймс Кидни, Фрэнк М. Эхерн, Хайди Хоукинс, Винсент Мессина, Николас Роуз, Эллиотт Ларсон-Гилмор, Холден Вонг, Джесси Шерман, Пол Бурк, Пол Дон, Тимоти Сполл-Описание: Очень давно две планеты притянулись друг к другу, и на обеих планетах живут люди, для каждой из планет есть своё притяжение. На верхней планете царит богатство и благоденствие. На ней создана корпорация, выкачивающая недры второй планеты и взамен предлагающая электроэнергию по неподъёмной для бедных жителей нижней планеты цене. Перемещение людей между планетами жестко контролируется.В центре событий находятся двое людей: она — девушка из богатой семьи из верхнего мира, он — простой человек из нижнего мира, и они любят друг друга. А ещё есть секрет пчелиной пыльцы, которая добывается одновременно на обеих планетах и имеет невероятные свойства.-Качество: BDRip 720р
Формат: MKV
Видео кодек: H.26x
Аудио кодек: AC3
Видео:MPEG-4 AVC, 8354 Кбит/с, 1280x570, 23.976 кадр/с
Аудио: AC3, 6 ch, 640 Кбит/сек

M.I

Код:
C:\Users\sassad\Desktop\720p.mkv
  General
    Unique ID : 244551511894540854899011687403473955711 (0xB7FAE870BD9F567B9D125EE8B6556B7F)
    Complete name : C:\Users\sassad\Desktop\720p.mkv
    Format : Matroska
    Format version : Version 2
    File size : 17.6 MiB
    Duration : 1mn 2s
    Overall bit rate : 2 354 Kbps
    Movie name : IRONCLUB
    Encoded date : UTC 2012-09-28 00:24:22
    Writing application : mkvmerge v4.9.1 ('Ich will') сборка от Jul 11 2011 23:53:15
    Writing library : libebml v1.2.1 + libmatroska v1.1.1
  Video #1
    ID : 1
    Format : AVC
    Format/Info : Advanced Video Codec
    Format profile : [email protected]
    Format settings, CABAC : Yes
    Format settings, ReFrames : 11 frames
    Codec ID : V_MPEG4/ISO/AVC
    Duration : 1mn 2s
    Bit rate : 1 667 Kbps
    Width : 1 280 pixels
    Height : 570 pixels
    Display aspect ratio : 2.25:1
    Frame rate : 23.976 fps
    Color space : YUV
    Chroma subsampling : 4:2:0
    Bit depth : 8 bits
    Scan type : Progressive
    Bits/(Pixel*Frame) : 0.095
    Stream size : 12.4 MiB (71%)
    Language : English
    Default : Yes
    Forced : No
    Matrix coefficients : BT.709-5, BT.1361, IEC 61966-2-4 709, SMPTE RP177
  Audio #2
    ID : 2
    Format : AC-3
    Format/Info : Audio Coding 3
    Mode extension : CM (complete main)
    Format settings, Endianness : Big
    Codec ID : A_AC3
    Duration : 1mn 2s
    Bit rate mode : Constant
    Bit rate : 640 Kbps
    Channel(s) : 6 channels
    Channel positions : Front: L C R, Side: L R, LFE
    Sampling rate : 48.0 KHz
    Bit depth : 16 bits
    Compression mode : Lossy
    Delay relative to video : 17ms
    Stream size : 4.78 MiB (27%)
    Default : Yes
    Forced : No
  Menu
    00:00:00.000 : en:00:07:45.756

Скриншоты

       

_________________
Other forum [Profile] [PM]
Display posts from previous:    
Reply to topic

The time now is: Today 02:29

All times are GMT + 3 Hours



You cannot post new topics in this forum
You cannot reply to topics in this forum
You cannot edit your posts in this forum
You cannot delete your posts in this forum
You cannot vote in polls in this forum
You cannot attach files in this forum
You cannot download files in this forum