Today is a free download without charge Download

Великан попал в беду (Кто стучится в дверь ко мне?) / Hiiglane hädas (Kes koputab mu uksele?) / Giant (Who\'s knocking at my door?) (Рихо Луусе / Riho Luuse) [1993, Эстония, мультфильм, WEBRip]

Reply to topic
 
Author
Message

Omen ®

Longevity: 7 years 11 months

Posts: 181087

Торрент-статистика

Post 12-Dec-2016 01:00

[Quote]

Великан попал в беду (Кто стучится в дверь ко мне?) / Hiiglane hädas (Kes koputab mu uksele?) / Giant (Who's knocking at my door?)
Страна: Эстония
Жанр: мультфильм
Продолжительность: 00:06:48
Год выпуска: 1993
Режиссёр: Рихо Луусе / Riho Luuse
Описание: Однажды, шагая по лесу, великан занозил ногу. Он отправился за помощью в избушку, где жили Белая Волшебница и лесовичок Муфтик.
Доп. информация: "Кто стучится в дверь ко мне?" - серия из 11 мультфильмов, над которой работали 9 режиссёров (Рейн Раамат, Мари-Лиис Моонвальд, Лия Саккос, Эло Полендик, Ану Нукки, Эда Кург, Неле Тихмяэ, Рихо Луусе, Райт Тийдус)
Качество: WEBRip
Формат: AVI
Видео: 2091 kbps, 624х480 (4:3), 24.000 fps, MPEG-4 Visual (XviD)
Аудио: 128 kbps, 44.1 kHz, 2 channels, MPEG Audio (MP3)
Субтитры: отсутствуют

Подробные технические данные

GeneralComplete name : Kes koputab mu uksele. Hiiglane hadas.aviFormat : AVIFormat/Info : Audio Video InterleaveFile size : 109 MiBDuration : 6mn 48sOverall bit rate : 2 232 KbpsWriting library : VirtualDub build 35491/release
VideoID : 0Format : MPEG-4 VisualFormat profile : Advanced [email protected] settings, BVOP : 2Format settings, QPel : NoFormat settings, GMC : No warppointsFormat settings, Matrix : Default (H.263)Codec ID : XVIDCodec ID/Hint : XviDDuration : 6mn 48sBit rate : 2 091 KbpsWidth : 624 pixelsHeight : 480 pixelsDisplay aspect ratio : 4:3Frame rate : 25.000 fpsColor space : YUVChroma subsampling : 4:2:0Bit depth : 8 bitsScan type : ProgressiveCompression mode : LossyBits/(Pixel*Frame) : 0.279Stream size : 102 MiB (94%)Writing library : XviD 64
AudioID : 1Format : MPEG AudioFormat version : Version 1Format profile : Layer 3Mode : Joint stereoMode extension : MS StereoCodec ID : 55Codec ID/Hint : MP3Duration : 6mn 48sBit rate mode : ConstantBit rate : 128 KbpsChannel(s) : 2 channelsSampling rate : 44.1 KHzCompression mode : LossyStream size : 6.24 MiB (6%)Alignment : Aligned on interleavesInterleave, duration : 26 ms (0.65 video frame)Interleave, preload duration : 522 msWriting library : LAME3.99

Скриншоты

Other forum [Profile] [PM]
Display posts from previous:    
Reply to topic

The time now is: Today 02:21

All times are GMT + 3 Hours



You cannot post new topics in this forum
You cannot reply to topics in this forum
You cannot edit your posts in this forum
You cannot delete your posts in this forum
You cannot vote in polls in this forum
You cannot attach files in this forum
You cannot download files in this forum