Today is a free download without charge Download

Самый лучший фильм 2 (Олег Фомин) [2009, Россия, комедия, пародия, BDRemux 1080p] + Original Rus

Reply to topic
 
Author
Message

Omen ®

Longevity: 8 years 10 months

Posts: 181086

Торрент-статистика

Post 11-Dec-2016 01:00

[Quote]

Самый лучший фильм 2
Страна: Россия
Студия: Monumental Pictures
Жанр: комедия, пародия
Год выпуска: 2009
Продолжительность: 01:25:00
Перевод: Не требуется
Cубтитры: нет
Оригинальная аудиодорожка: русский
Режиссер: Олег Фомин
В ролях: Тимур Батрутдинов, Гарик Харламов, Дмитрий Хрусталев, Олег Верещагин, Михаил Галустян, Дмитрий Нагиев, Александр Баширов, Сергей Лазарев, Екатерина Конисевич, Татьяна Лютаева
Описание: Четверо закадычных друзей — Моряк, Актер, Мажор и Димати — после долгой разлуки встречаются в московском кафе отметить день рождения Мажора. На сей раз у них есть наличные, чтобы расплатиться с официанткой. И бегать по городу в поисках денег они будут совершенно по другой причине. Мажора похитили и требуют выкуп — миллион евро. Чем друзья будут расплачиваться с бандитами, кто найдет новую любовь, а вместе с ней и приключения на все органы жизнедеятельности, кому придется испытать все тяготы сложного пути шоу-бизнеса к популярности, каково рэпперу кавказской наружности гулять одному по безлюдным улицам?! Но все это впереди, а пока они молоды, красивы, полны сил, надежд и ждут приключений!
Сэмпл: https://m.sendspace.com/file/37dphi
Тип релиза: BDRemux 1080p
Контейнер: BDAV
Видео: MPEG-4 AVC/H.264 / 23.9 mbps / 1920x1080 / 24.000 fps
Аудио: TrueHD / 6 ch / 4356 kbps / 48 kHz
Аудио 2: AC3 / 6 ch / 640 kbps / 48 kHz

MediaInfo

General
ID : 0 (0x0)
Complete name : J:\Torrents\Самый лучший фильм 2 (2009) BDRemux-1080p\BDMV\STREAM\00003.m2ts
Format : BDAV
Format/Info : Blu-ray Video
File size : 15.4 GiB
Duration : 1h 25mn
Overall bit rate mode : Variable
Overall bit rate : 26.0 Mbps
Maximum Overall bit rate : 48.0 Mbps
Video
ID : 4113 (0x1011)
Menu ID : 1 (0x1)
Format : AVC
Format/Info : Advanced Video Codec
Format profile : [email protected]
Format settings, CABAC : Yes
Format settings, ReFrames : 4 frames
Codec ID : 27
Duration : 1h 24mn
Bit rate mode : Variable
Bit rate : 23.9 Mbps
Maximum bit rate : 35.0 Mbps
Width : 1 920 pixels
Height : 1 080 pixels
Display aspect ratio : 16:9
Frame rate : 24.000 fps
Standard : NTSC
Color space : YUV
Chroma subsampling : 4:2:0
Bit depth : 8 bits
Scan type : Progressive
Bits/(Pixel*Frame) : 0.481
Stream size : 14.2 GiB (92%)
Color range : Limited
Color primaries : BT.709
Transfer characteristics : BT.709
Matrix coefficients : BT.709
Audio #1
ID : 4352 (0x1100)
Menu ID : 1 (0x1)
Format : TrueHD / AC-3
Mode extension : CM (complete main)
Format settings, Endianness : Big
Muxing mode : Stream extension
Codec ID : 131
Duration : 1h 25mn
Bit rate mode : Variable / Constant
Bit rate : 384 Kbps
Maximum bit rate : 4 356 Kbps
Channel(s) : 6 channels / 2 channels
Channel positions : Front: L C R, Side: L R, LFE / Front: L R
Sampling rate : 48.0 KHz
Frame rate : 31.250 fps (1536 spf)
Stream size : 233 MiB (1%)
Audio #2
ID : 4353 (0x1101)
Menu ID : 1 (0x1)
Format : AC-3
Format/Info : Audio Coding 3
Mode extension : CM (complete main)
Format settings, Endianness : Big
Codec ID : 129
Duration : 1h 25mn
Bit rate mode : Constant
Bit rate : 640 Kbps
Channel(s) : 6 channels
Channel positions : Front: L C R, Side: L R, LFE
Sampling rate : 48.0 KHz
Frame rate : 31.250 fps (1536 spf)
Compression mode : Lossy
Stream size : 389 MiB (2%)

Скриншоты

Other forum [Profile] [PM]
Display posts from previous:    
Reply to topic

The time now is: Today 22:01

All times are GMT + 3 Hours



You cannot post new topics in this forum
You cannot reply to topics in this forum
You cannot edit your posts in this forum
You cannot delete your posts in this forum
You cannot vote in polls in this forum
You cannot attach files in this forum
You cannot download files in this forum