Today is a free download without charge Download

ЗЛО / V/H/S (Мэттью Беттинелли, Адам Вингард, Дэвид Брукнер) [2012 г., ужасы, триллер, DVD9] [Лицензия]

Reply to topic
 
Author
Message

Meshanik ®

Gender:

Longevity: 8 years 10 months

Posts: 3866

Location: Los Angeles

Торрент-статистика

Post 27-Sep-2012 01:53

[Quote]

ЗЛО / V/H/S (2012) DVD9-- Год выпуска: 2012
Страна: США
Жанр: ужасы, триллер
Продолжительность: 01:50:09
Субтитры: нет
Перевод: Дубляж [Лицензия]--Дата мировой премьеры: 22 января 2012
Дата российской премьеры: 6 сентября 2012, «Каскад»
Дата выхода DVD релиза: 27 сентября 2012, «Флагман-Трейд»--Режиссер: Мэттью Беттинелли, Адам Вингард, Дэвид Брукнер
В ролях: Кэлвин Ридер, Лэйн Хьюз, Адам Вингард, Ханна Файрман, Майк Донлан, Джо Сайкес, Дрю Сойер, Джессика Сэмс, Джо Сванберг, Софи Такал--
В поисках редкой видеозаписи трое взломщиков пробираются в таинственный особняк. Хозяин ждет их у включенного телевизора и, похоже, не слишком радуется визиту. Он мертв уже несколько дней, а его странное наследие — коллекция старых видеозаписей, покоится неподалеку. Желая отыскать нужную пленку, друзья просматривают весь архив. Каждая запись погружает их в новый кошмар, настолько реальный, будто он происходит у них на глазах. И с каждой минутой где-то совсем рядом пробуждается оно, неведомое и беспощадное ЗЛО.-- -- --Качество: DVD9
Формат: DVD-Video
Видео кодек: MPEG2
Аудио кодек: AC-3
Видео: 720 x 576 (1.778) at 25.000 fps, MPEG Video at 8675 Кбит/сек
Аудио: 6 канала(ов), 48,0 КГц, AC-3 at 448 Кбит/сек--

DVDinfo

Код:
Title:
Size: 7.49 Gb ( 7 854 660 KBytes ) - DVD-9
Enabled regions: 1, 2, 3, 4, 5, 6, 7, 8
VTS_01 :
Play Length: 01:50:09
Video: PAL 16:9 (720x576) VBR, Auto Pan&Scan
Audio:
Russian (Dolby AC3, 6 ch)
VTS_02 :
Play Length: 00:00:16+00:00:08+00:02:07
Video: PAL 16:9 (720x576) VBR, Auto Pan&Scan
Audio:
Russian (Dolby AC3, 2 ch)
Menu Video:
NTSC 4:3 (720x480) VBR
Auto Pan&Scan, Auto Letterboxed
Menu Russian Language Unit :
Root Menu

Mediainfo

Код:
General
Complete name : G:\ZLO.2012.D.DVD9\VIDEO_TS\VTS_01_2.VOB
Format : MPEG-PS
File size : 1 024 MiB
Duration : 15mn 4s
Overall bit rate : 9 500 Kbps
Video
ID : 224 (0xE0)
Format : MPEG Video
Format version : Version 2
Format profile : [email protected]
Format settings, BVOP : Yes
Format settings, Matrix : Custom
Format settings, GOP : M=3, N=15
Duration : 15mn 3s
Bit rate : 8 900 Kbps
Width : 720 pixels
Height : 576 pixels
Display aspect ratio : 16:9
Frame rate : 25.000 fps
Standard : PAL
Color space : YUV
Chroma subsampling : 4:2:0
Bit depth : 8 bits
Scan type : Interlaced
Scan order : Top Field First
Compression mode : Lossy
Bits/(Pixel*Frame) : 0.858
Stream size : 955 MiB (93%)
Audio
ID : 189 (0xBD)-128 (0x80)
Format : AC-3
Format/Info : Audio Coding 3
Mode extension : CM (complete main)
Format settings, Endianness : Big
Muxing mode : DVD-Video
Duration : 15mn 4s
Bit rate mode : Constant
Bit rate : 448 Kbps
Channel(s) : 6 channels
Channel positions : Front: L C R, Side: L R, LFE
Sampling rate : 48.0 KHz
Bit depth : 16 bits
Compression mode : Lossy
Delay relative to video : -568ms
Stream size : 48.3 MiB (5%)

Скриншоты меню

     

Скриншоты

         
Other forum [Profile] [PM]
Display posts from previous:    
Reply to topic

The time now is: Today 19:07

All times are GMT + 3 Hours



You cannot post new topics in this forum
You cannot reply to topics in this forum
You cannot edit your posts in this forum
You cannot delete your posts in this forum
You cannot vote in polls in this forum
You cannot attach files in this forum
You cannot download files in this forum