Today is a free download without charge Download

Порочная страсть / Arbitrage(Николас Джареки Триллер, Драма) (2012) [H.264] HDRip

Reply to topic
 
Author
Message

KirovSOFT ®

Gender:

Longevity: 9 years 2 months

Posts: 998

Location: Кировская область -Оричи

Торрент-статистика

Post 26-Sep-2012 19:53

[Quote]

Порочная страсть / Arbitrage (Николас Джареки Триллер, Драма)(2012) HDRip-
Русское название: Порочная страсть
Оригинальное название: Arbitrage
Год выпуска: 2012
Производство: Alvernia Production, Artina Films / США
Жанр: Триллер, Драма
Перевод: Одноголосый закадровый, любительский
Субтитры: Отсутствуют
Дата мировой премьеры: 21 января 2012
Дата российской премьеры: 4 октября 2012, «Парадиз»
Дата выхода DVD релиза: 5 ноября 2012, «Новый Диск»
Режиссер: Николас Джареки
Актеры: Ричард Гир, Сьюзен Сарандон, Тим Рот, Брит Марлинг, Летиция Каста, Нэйт Паркер, Уильям Фридкин, Моника Реймунд, Джош Пэйс, Кристофер Айджмен
Описание фильма:
Роберт Миллер — харизматичный аферист и гениальный любовник. Он привык к тому, что в постелях его всегда ждут жена и любовница, которые, правда, попеременно закатывают ему скандалы, а огромные деньги делаются просто из воздуха. Но дутый бизнес не может держаться долго. Почуяв провал, он стремится поскорее продать свой хедж-фонд крупному банку, прежде чем раскроются его махинации. Непредвиденные события и нелепые ошибки толкают его на отчаянный шаг…

Продолжительность: 01:47:29
Качество видео: HDRip
Видеокодек: MPEG-4 AVC/H.264
Битрейт видео: ~2525 kb/s
Размер кадра: 1024x550
Аудио 1: Русский: AC3 / Dolby Digital Audio / 2.0 / 48 kHz / 192 kbps
Аудио 2: Английский: AC3 / Dolby Digital Audio / 2.0 / 48 kHz / 192 kbps
Сэмпл: Скачать

MediaInfo:

Код:
Общее
Уникальный идентификатор         : 223307749782211760784284687496779805959 (0xA7FF821A2D502819B01547964DCE3507)
Полное имя                       : Y:\игорь\Arbitrage.2012.HDRip-AVC_[/*spam*/].mkv
Формат                           : Matroska
Версия формата                   : Version 2
Размер файла                     : 2,18 Гбайт
Продолжительность                : 1 ч. 47 м.
Общий поток                      : 2910 Кбит/сек
Название фильма                  : Arbitrage.2012
Дата кодирования                 : UTC 2012-09-25 15:56:18
Программа кодирования            : mkvmerge v5.6.0 ('Kenya Kane') built on May 27 2012 16:44:04
Библиотека кодирования           : libebml v1.2.3 + libmatroska v1.3.0
Видео
Идентификатор                    : 1
Формат                           : AVC
Формат/Информация                : Advanced Video Codec
Профиль формата                  : [email protected]
Параметр CABAC формата           : Да
Параметр ReFrames формата        : 11 кадров
Идентификатор кодека             : V_MPEG4/ISO/AVC
Продолжительность                : 1 ч. 47 м.
Битрейт                          : 2525 Кбит/сек
Ширина                           : 1024 пикселя
Высота                           : 550 пикселей
Соотношение сторон               : 1,862
Частота кадров                   : 23,976 кадра/сек
Цветовое пространство            : YUV
Субдискретизация насыщенности    : 4:2:0
Битовая глубина                  : 8 бит
Тип развёртки                    : Прогрессивная
Бит/(Пиксели*Кадры)              : 0.187
Размер потока                    : 1,85 Гбайт (85%)
Заголовок                        : Arbitrage.2012.HDRip-AVC_[/*spam*/]
Библиотека кодирования           : x264 core 125 r2200 999b753
Настройки программы              : cabac=1 / ref=11 / deblock=1:-2:-1 / analyse=0x3:0x133 / me=umh / subme=11 / psy=1 / psy_rd=1.00:0.05 / mixed_ref=1 / me_range=48 / chroma_me=1 / trellis=2 / 8x8dct=1 / cqm=0 / deadzone=21,11 / fast_pskip=0 / chroma_qp_offset=-3 / threads=6 / lookahead_threads=1 / sliced_threads=0 / nr=0 / decimate=1 / interlaced=0 / bluray_compat=0 / constrained_intra=0 / bframes=11 / b_pyramid=2 / b_adapt=2 / b_bias=0 / direct=3 / weightb=0 / open_gop=0 / weightp=2 / keyint=240 / keyint_min=23 / scenecut=40 / intra_refresh=0 / rc_lookahead=80 / rc=2pass / mbtree=1 / bitrate=2525 / ratetol=1.0 / qcomp=0.60 / qpmin=0 / qpmax=69 / qpstep=4 / cplxblur=20.0 / qblur=0.5 / ip_ratio=1.40 / aq=2:0.80
Язык                             : English
Основные цвета                   : BT.709-5, BT.1361, IEC 61966-2-4, SMPTE RP177
Характеристики трансфера         : BT.709-5, BT.1361
Коэффициенты матрицы             : BT.709-5, BT.1361, IEC 61966-2-4 709, SMPTE RP177
Аудио #1
Идентификатор                    : 2
Формат                           : AC-3
Формат/Информация                : Audio Coding 3
Расширение режима                : CM (complete main)
Идентификатор кодека             : A_AC3
Продолжительность                : 1 ч. 47 м.
Вид битрейта                     : Постоянный
Битрейт                          : 192 Кбит/сек
Каналы                           : 2 канала
Расположение каналов             : Front: L R
Частота                          : 48,0 КГц
Битовая глубина                  : 16 бит
Метод сжатия                     : С потерями
Размер потока                    : 148 Мбайт (7%)
Заголовок                        : Одноголосый закадровый
Язык                             : Russian
Аудио #2
Идентификатор                    : 3
Формат                           : AC-3
Формат/Информация                : Audio Coding 3
Расширение режима                : CM (complete main)
Идентификатор кодека             : A_AC3
Продолжительность                : 1 ч. 47 м.
Вид битрейта                     : Постоянный
Битрейт                          : 192 Кбит/сек
Каналы                           : 2 канала
Расположение каналов             : Front: L R
Частота                          : 48,0 КГц
Битовая глубина                  : 16 бит
Метод сжатия                     : С потерями
Размер потока                    : 148 Мбайт (7%)
Язык                             : English
Скриншоты:
           



_________________
Other forum [Profile] [PM]
Display posts from previous:    
Reply to topic

The time now is: Today 00:30

All times are GMT + 3 Hours



You cannot post new topics in this forum
You cannot reply to topics in this forum
You cannot edit your posts in this forum
You cannot delete your posts in this forum
You cannot vote in polls in this forum
You cannot attach files in this forum
You cannot download files in this forum