Today is a free download without charge Download

Можно и нельзя (Лев Мильчин) [1964, СССР, Рисованный мультфильм, WEBRip]

Reply to topic
 
Author
Message

Omen ®

Longevity: 7 years 11 months

Posts: 181087

Торрент-статистика

Post 02-Dec-2016 01:00

[Quote]

Можно и нельзя
Страна: СССР
Жанр: Рисованный мультфильм
Продолжительность: 00:18:27
Год выпуска: 1964
Русские субтитры: нет
Режиссёр: Лев Мильчин
Роли озвучивали: Клара Румянова, Елена Понсова, Александр Граве
Описание: Два волшебных человечка Можно и Нельзя помогают Малышу, который остается дома один, познакомиться с окружающим миром и понять, что можно делать и чего – нельзя…
Доп. информация: "Союзмультфильм"
Художники: Г.Баринов,Б.Бутаков,В.Карп,М.Мотрук
Композитор: М.Вайнберг
Оператор: М.Друян
Монтаж: М.Кякшт
Сценарий: Е.Агранович
Качество: WEBRip
Формат: AVI
Видео: 640x480 (1.33:1), 25 fps, XviD 65 ~2098 kbps avg, 0.27 bit/pixel
Аудио: 48 kHz, AC3 Dolby Digital, 1/0 (C) ch, ~128.00 kbps avg
Субтитры: нет

Подробные технические данные

Format : AVIFormat/Info : Audio Video InterleaveFile size : 295 MiBDuration : 18mn 27sOverall bit rate : 2 236 KbpsWriting application : VirtualDubModRus 1.5.10.2 (build 2542/release)Copyright : Rutracker.orgComment : WEBRip by dvdss
VideoID : 0Format : MPEG-4 VisualFormat profile : Advanced [email protected] settings, BVOP : 2Format settings, QPel : NoFormat settings, GMC : No warppointsFormat settings, Matrix : CustomCodec ID : XVIDCodec ID/Hint : XviDDuration : 18mn 27sBit rate : 2 098 KbpsWidth : 640 pixelsHeight : 480 pixelsDisplay aspect ratio : 5:4Original display aspect ratio : 4:3Frame rate : 25.000 fpsColor space : YUVChroma subsampling : 4:2:0Bit depth : 8 bitsScan type : ProgressiveCompression mode : LossyBits/(Pixel*Frame) : 0.273Stream size : 277 MiB (94%)Writing library : XviD 65
AudioID : 1Format : AC-3Format/Info : Audio Coding 3Mode extension : CM (complete main)Format settings, Endianness : BigCodec ID : 2000Duration : 18mn 27sBit rate mode : ConstantBit rate : 128 KbpsChannel(s) : 1 channelChannel positions : Front: CSampling rate : 48.0 KHzBit depth : 16 bitsCompression mode : LossyStream size : 16.9 MiB (6%)Alignment : Aligned on interleavesInterleave, duration : 40 ms (1.00 video frame)Interleave, preload duration : 512 ms

сравнение с DVDRip

Сравнение с [url=viewtopic.php?t=3799294]http:///*spam*//forum/viewtopic.php?t=3799294[/url]
Тут -- http://screenshotcomparison.com/comparison/192423/picture:1
Other forum [Profile] [PM]
Display posts from previous:    
Reply to topic

The time now is: Today 13:50

All times are GMT + 3 Hours



You cannot post new topics in this forum
You cannot reply to topics in this forum
You cannot edit your posts in this forum
You cannot delete your posts in this forum
You cannot vote in polls in this forum
You cannot attach files in this forum
You cannot download files in this forum