Today is a free download without charge Download

Космополис / Cosmopolis (Дэвид Кроненберг Триллер, Драма) (2012) HDRip

Reply to topic
 
Author
Message

KirovSOFT ®

Gender:

Longevity: 9 years 2 months

Posts: 998

Location: Кировская область -Оричи

Торрент-статистика

Post 26-Sep-2012 19:17

[Quote]

Космополис / Cosmopolis (Дэвид Кроненберг Триллер, Драма) (2012) HDRip- Русское название: Космополис
Оригинальное название: Cosmopolis
Год выпуска: 2012
Производство: Канада, Франция, Италия, Португалия, Alfama Films, Canal+, France 2 Cin�ma, Kinology
Жанр: Триллер, Драма
Перевод: Дублированный [Лицензия]
Субтитры: Отсутствуют
Дата мировой премьеры: 25 мая 2012
Дата российской премьеры: 19 июля 2012, «Top Film Distribution»
Дата выхода DVD релиза: 6 сентября 2012, «Новый Диск», «New Dream media»
Режиссер: Дэвид Кроненберг
Продюсер: Паулу Бранку, Мартин Кац, Джозеф Боччиа
Актеры: Роберт Паттинсон, Жюльет Бинош, Сара Гадон, Матье Амальрик, Джей Барушель, Кевин Дюран, К’Наан, Эмили Хэмпшир, Саманта Мортон, Пол Джаматти
Описание фильма:
24 часа из жизни 28-летнего миллиардера-финансиста Эрика Пэкера, который изменяет своей молодой жене, подвергается нападению и разом теряет все свое состояние. Действие ленты будет разворачиваться на Манхэттене в течение одних суток.

Продолжительность: 01:48:29
Качество видео: HDRip
Видеокодек: XviD
Битрейт видео: 1399 kb/s
Размер кадра: 720x384
Аудиокодек: AC3 5.1
Битрейт аудио: 384 kb/s-

MediaInfo:

Код:
Общее
Полное имя                               : E:\Загрузка\Kosmopolis.2012.D.HDRip.1400MB.avi
Формат                                   : AVI
Формат/Информация                        : Audio Video Interleave
Профиль формата                          : OpenDML
Размер файла                             : 1,37 Гбайт
Продолжительность                        : 1 ч. 48 м.
Общий поток                              : 1796 Кбит/сек
Название фильма                          : Kosmopolis.2012.D.HDRip
Программа кодирования                    : Lavf54.16.104
Видео
Идентификатор                            : 0
Формат                                   : MPEG-4 Visual
Профиль формата                          : [email protected]
Параметр BVOP формата                    : Нет
Параметр QPel формата                    : Нет
Параметр GMC формата                     : Без точки перехода
Параметр матрицы формата                 : Default (H.263)
Идентификатор кодека                     : XVID
Идентификатор кодека/Подсказка           : XviD
Продолжительность                        : 1 ч. 48 м.
Битрейт                                  : 1400 Кбит/сек
Ширина                                   : 720 пикселей
Высота                                   : 384 пикселя
Соотношение сторон                       : 1,85:1
Частота кадров                           : 23,976 кадра/сек
Цветовое пространство                    : YUV
Субдискретизация насыщенности            : 4:2:0
Битовая глубина                          : 8 бит
Тип развёртки                            : Прогрессивная
Метод сжатия                             : С потерями
Бит/(Пиксели*Кадры)                      : 0.211
Размер потока                            : 1,07 Гбайт (78%)
Библиотека кодирования                   : XviD 64
Аудио
Идентификатор                            : 1
Формат                                   : AC-3
Формат/Информация                        : Audio Coding 3
Расширение режима                        : CM (complete main)
Параметр Endianness формата              : Big
Идентификатор кодека                     : 2000
Продолжительность                        : 1 ч. 48 м.
Вид битрейта                             : Постоянный
Битрейт                                  : 384 Кбит/сек
Каналы                                   : 6 каналов
Расположение каналов                     : Front: L C R, Side: L R, LFE
Частота                                  : 48,0 КГц
Битовая глубина                          : 16 бит
Метод сжатия                             : С потерями
Размер потока                            : 299 Мбайт (21%)
Выравнивание                             : Соединение по промежуткам
Продолжительность промежутка             : 32  мс. (0,77 видеокадр)
Cкриншоты из фильма:
         


_________________
Other forum [Profile] [PM]
Display posts from previous:    
Reply to topic

The time now is: Today 15:34

All times are GMT + 3 Hours



You cannot post new topics in this forum
You cannot reply to topics in this forum
You cannot edit your posts in this forum
You cannot delete your posts in this forum
You cannot vote in polls in this forum
You cannot attach files in this forum
You cannot download files in this forum