Today is a free download without charge Download

Ангелы вселенной / Englar alheimsins (Фридрик Тоур Фридрикссон) [2000 г., драма, биография, DVDRip]

Reply to topic
 
Author
Message

Jurchic ®

Longevity: 9 years 7 months

Posts: 42

Location: такое любопытство

Торрент-статистика

Post 26-Sep-2012 16:25

[Quote]

Ангелы вселенной / Englar alheimsins (2000) DVDRip Год выпуска: 2000
Страна: Германия Дания , Швеция Норвегия , Исландия
Жанр: драма, биография
Продолжительность: 01:37:59
Перевод: Профессиональный (двухголосый закадровый)
Режиссер: Фридрик Тоур Фридрикссон
Продюссер: Фридрик Тоур Фридрикссон, Анна Мария Карлсдоттир, Александр Бор
Сценарий: Айнар Гудмундсон
В ролях: Ингвар Эггерт Сигурдссон, Бальтасар Кормакур, Хилмир Снаэр Гуднасон, Björn Jörundur Friðbjörnsson, Маргрет Хельга Йоханнсдоттир, Теодор Юлиуссон, Фридрик Штейн Фридрикссон, Sara Margrét Mikaelsdóttir, Halldóra Geirharðsdóttir, Þór Tulinius
Премьера в мире: 1 января 2000

Описание: Пол влюбился в девушку, но ее родители запрещают им встречаться. У Пола — шизофрения, он попадает в психиатрическую лечебницу. Будучи наделен талантами художника и поэта. Он отождествляет себя с героями Шекспира и Ван Гогом.
Друзья Пола по клинике — Оли, у которого телепатический контакт с «Битлз» и эрудит Виктор, которому временами кажется, что он — Гитлер.
Пытаясь скрасить ужас холодной исландской жизни, троица время от времени сбегает из больницы и наведывается то в гости к президенту, то в самый фешенебельный ресторан Рейкьявика.
Качество: DVDRip
Формат: AVI
Видео кодек: XviD
Аудио кодек: AC3
Видео: 1535 Кбит/сек; 704х384; 25,000 кадров/сек; MPEG-4 Visuai
Аудио: 48,0 КГц, 6 каналов, 448 Кбит/сек, 16 бит

MediaInfo:

Общее
Полное имя ::\\\Englar alheimsins.avi
Формат : AVI
Формат/Информация : Audio Video Interleave
Размер файла : 1,36 Гбайт
Продолжительность : 1 ч. 37 м.
Общий поток : 1993 Кбит/сек
Программа кодирования : VirtualDubMod 1.5.10.1 (build 2439/release)
Библиотека кодирования : VirtualDubMod build 2439/release
Видео
Идентификатор : 0
Формат : MPEG-4 Visual
Профиль формата : [email protected]
Параметр BVOP формата : 4
Параметр QPel формата : Нет
Параметр GMC формата : Без точки перехода
Параметр матрицы формата : Default (MPEG)
Идентификатор кодека : XVID
Идентификатор кодека/Подсказка : XviD
Продолжительность : 1 ч. 37 м.
Битрейт : 1535 Кбит/сек
Ширина : 704 пикселя
Высота : 384 пикселя
Соотношение сторон : 1,85:1
Частота кадров : 25,000 кадров/сек
Цветовое пространство : YUV
Субдискретизация насыщенности : 4:2:0
Битовая глубина : 8 бит
Тип развёртки : Прогрессивная
Метод сжатия : С потерями
Бит/(Пиксели*Кадры) : 0.227
Размер потока : 1,05 Гбайт (77%)
Библиотека кодирования : XviD 1.1.0 Beta2 (UTC 2005-04-04)
Аудио
Идентификатор : 1
Формат : AC-3
Формат/Информация : Audio Coding 3
Расширение режима : CM (complete main)
Параметр Endianness формата : Big
Идентификатор кодека : 2000
Продолжительность : 1 ч. 37 м.
Вид битрейта : Постоянный
Битрейт : 448 Кбит/сек
Каналы : 6 каналов
Расположение каналов : Front: L C R, Side: L R, LFE
Частота : 48,0 КГц
Битовая глубина : 16 бит
Метод сжатия : С потерями
Размер потока : 314 Мбайт (22%)
Выравнивание : Разделение по промежуткам
Продолжительность промежутка : 40 мс. (1,00 видеокадр)
Время предзагрузки промежутка : 500 мс.

Рецензии:

Crystal ship:
Я считаю, что фильм очень неоднозначен в количестве поднятых им проблем. Тут есть и извечная нелюбовь богатых людей к рабочему классу, и безразличие к чужому горю, и отсутствие близких людей, когда тебе хуже всего.
Перед нами потерявший себя в этом большом мире художник по имени Пол, который по началу был хорошим сыном для своих родителей, а после расставания с девушкой, начавший болеть шизофренией, постоянно летающий в облаках Оли, уверенный в том, что у него телепатический контакт с группой Битлз, Виктор, которому кажется временами, что он Гитлер. Все они совершенно не кажутся психами, когда находятся в больнице. Ребята говорят о жизни, о своих личных проблемах, пытаясь наверняка найти поддержку. Стоит отметить и Петро, тихого и одинокого, переживающего наверняка сильное душевное расстройство. К нему приходила один раз беременная жена и в чем-то обвиняла, а он стоял и молча выслушивал ее упреки. Казалось в этот момент они поменялись местами.
Чего стоит их агрессивный охранник, обращавшийся с пациентами как с животными. Совершенно непонятно, кто из них больше болен.
Пол не вызывал у меня жалости, его выпады агрессии на родных и странные выходки — это скорее признаки сознательного самоубийства. Отчуждение общества тут конечно тоже сыграло не последнюю роль. Но очень грустно из-за того, что эти люди не смогли найти в себе нужные струны для того, чтобы продолжить жить.
Очень сильный фильм с хорошими актерами и красивой музыкой, песня Sigur Ros в конце меня просто покорила! Такая неспешная и грустная как и весь фильм.
10 из 10

Mikhuil:
Фильм начинается с демонстрации исландской размеренности, выраженной с помощью лёгкой депрессии. Однако эта депрессия не въедается в душу, а остаётся где-то на поверхности.
Главный герой (Пол) — художник и драммер, умеющий ходить по воде, однако сильно зависящий от социума. Он встречает девушку, не отвечающей его социальному положению, и влюбляется, однако классовое неравенство заставляет девушку отказаться от отношений с Полом.
После этого главный герой укрепляется в своей ненависти к окружающем людям и в своём превосходстве над ними.
«Ангелы Вселенной» — необычный фильм. Он заставляет вникать в события, не ощущая себя их участником или хотя бы непосредственным наблюдателем. У Вас есть возможность наблюдать за жизнью немного необычного человека с отчуждённостью от происходящего.
На протяжении всего фильма неприязнь к Полу обретает цикличность — неприязнь меняется местами с чем-то нейтральным. Мне осталась не очень понятной главная идея фильма. Что же пытались показать люди, причастные к его созданию? Неужели, разрушительную способность любви?

Скриншоты

               
Other forum [Profile] [PM]
Similar theme
Forum Topic Author Torrent Replies Last Post
./templates/default/images/folder_dl.gif Фильмы 2011-2020 Падение ангела / Angel Has Fallen (2019) BDRip [H.264/720p] [PR] Clavik
1 | 0

0 | 798

2

2019-11-15 22:01
Clavik Latest
Display posts from previous:    
Reply to topic

The time now is: Today 11:52

All times are GMT + 3 Hours



You cannot post new topics in this forum
You cannot reply to topics in this forum
You cannot edit your posts in this forum
You cannot delete your posts in this forum
You cannot vote in polls in this forum
You cannot attach files in this forum
You cannot download files in this forum