Today is a free download without charge Download

Угнанный / Hijacked (Брендон Натт Боевик, Триллер) (2012) [720p] BDRip

Reply to topic
 
Author
Message

KirovSOFT ®

Gender:

Longevity: 9 years

Posts: 998

Location: Кировская область -Оричи

Торрент-статистика

Post 26-Sep-2012 10:00

[Quote]

Угнанный / Hijacked (Брендон Натт Боевик, Триллер) (2012) [720p] BDRip-
Русское название: Угнанный
Оригинальное название: Hijacked
Год выпуска: 2012
Производство: США | NuttHouse Moving Pictures Company, Swift Street Productions
Жанр:Боевик, Триллер
Перевод: Многоголосый закадровый, профессиональный [Лицензия]
Язык субтитров: Русский, Английский
Вид субтитров: Вшитые отключаемые-Дата мировой премьеры: 18 февраля 2012
Дата выхода DVD релиза: 26 сентября 2012, «Кармен Видео», «ВС трейд»-Режиссер: Брендон Натт-Продюссеры: Леонард Альсфельд, Джеффри Бич, Джеффри Грин, Чейс Хадсон, Брендон Натт-Актеры: Доминик Пёрселл (Dominic Purcell), Рэнди Кутюр (Randy Couture), Винни Джонс (Vinnie Jones), Крэйг Фэйрбрасс (Craig Fairbrass), Джина Филипс (Gina Philips), Тиффэни Дупонт (Tiffany Dupont), Холт МакКэллани (Holt McCallany), Марла Малкольм (Marla Malcolm), Эшли Кусато (Ashley Cusato), Кристиана Саймон (Christiana Simon), Уилл Бейнбринк (Will Beinbrink), Линн Мур (Lynn Moore), Джон Майкл Дэвис (Jon Michael Davis), Джэй Хьюджули (Jay Huguley), Роберт Мартин Стейнберг (Rob Steinberg-Описание:
Планы специального агента Росса по примерению с его экс-женой разрушаются, когда она поднимается на борт частного самолета, который является целью угонщиков. Росс следит за ними, и не имея времени для информирования своей команды и подвергая себя риску, он проникает на борт самолета для того, чтобы спасти любовь своей жизни…

Продолжительность: 01:30:16
Качество видео: BDRip 720p
Видеокодек: MPEG-4 AVC/H.264
Битрейт видео: ~ 6000 Кбит/сек
Размер кадра: 1280 x 720 (1.778) at 23.976 fps : 0.272 Bits/Pixel
Аудиокодек: AC3 5.1
Аудио #1: AC3 384 Кбит/сек (6ch), 48,0 КГц : 16 bits [Русский, MVO]
Аудио #2: AC3 640 Кбит/сек (6ch), 48,0 КГц : 16 bits [Английский]
Релиз:

MediaInfo:

Код:
Полное имя                               : F:\Фильмы\HD-BD\Угон самолёта Hijacked 2012 BDRip 720 - 1080p\Ugnannyj.2012.BDRip.720p.NNM-CLUB.mkv
Формат                                   : Matroska
Версия формата                           : Version 2
Размер файла                             : 4,43 Гбайт
Продолжительность                        : 1 ч. 30 м.
Общий поток                              : 7024 Кбит/сек
Дата кодирования                         : UTC 2012-09-25 22:03:04
Программа кодирования                    : mkvmerge v2.9.9 ('Tutu') built on Nov 25 2009 21:13:32
Библиотека кодирования                   : libebml v0.7.9 + libmatroska v0.8.1
Видео
Идентификатор                            : 1
Формат                                   : AVC
Формат/Информация                        : Advanced Video Codec
Профиль формата                          : [email protected]
Параметр CABAC формата                   : Да
Параметр ReFrames формата                : 11 кадров
Идентификатор кодека                     : V_MPEG4/ISO/AVC
Продолжительность                        : 1 ч. 30 м.
Битрейт                                  : 6000 Кбит/сек
Ширина                                   : 1280 пикселей
Высота                                   : 720 пикселей
Соотношение сторон                       : 16:9
Режим частоты кадров                     : Постоянный
Частота кадров                           : 23,976 кадра/сек
Цветовое пространство                    : YUV
Субдискретизация насыщенности            : 4:2:0
Битовая глубина                          : 8 бит
Тип развёртки                            : Прогрессивная
Бит/(Пиксели*Кадры)                      : 0.272
Размер потока                            : 3,70 Гбайт (83%)
Заголовок                                : Ugon.samoleta.2012.BDRip.720p.GIU
Библиотека кодирования                   : x264 core 116 r2074 2641b9e
Настройки программы                      : cabac=1 / ref=11 / deblock=1:0:0 / analyse=0x3:0x113 / me=esa / subme=11 / psy=1 / psy_rd=1.00:0.00 / mixed_ref=1 / me_range=48 / chroma_me=1 / trellis=2 / 8x8dct=1 / cqm=0 / deadzone=21,11 / fast_pskip=1 / chroma_qp_offset=-2 / threads=12 / sliced_threads=0 / nr=0 / decimate=1 / interlaced=0 / bluray_compat=0 / constrained_intra=0 / bframes=10 / b_pyramid=2 / b_adapt=1 / b_bias=0 / direct=1 / weightb=1 / open_gop=0 / weightp=2 / keyint=250 / keyint_min=23 / scenecut=40 / intra_refresh=0 / rc_lookahead=40 / rc=2pass / mbtree=1 / bitrate=6000 / ratetol=1.0 / qcomp=0.70 / qpmin=10 / qpmax=51 / qpstep=4 / cplxblur=20.0 / qblur=0.5 / ip_ratio=1.40 / aq=1:1.00
Язык                                     : English
Default                                  : Нет
Forced                                   : Нет
Аудио #1
Идентификатор                            : 2
Формат                                   : AC-3
Формат/Информация                        : Audio Coding 3
Расширение режима                        : CM (complete main)
Параметр Endianness формата              : Big
Идентификатор кодека                     : A_AC3
Продолжительность                        : 1 ч. 30 м.
Вид битрейта                             : Постоянный
Битрейт                                  : 384 Кбит/сек
Каналы                                   : 6 каналов
Расположение каналов                     : Front: L C R, Side: L R, LFE
Частота                                  : 48,0 КГц
Битовая глубина                          : 16 бит
Метод сжатия                             : С потерями
Размер потока                            : 248 Мбайт (5%)
Заголовок                                : AC3.384.Kbps.Russian
Язык                                     : Russian
Default                                  : Да
Forced                                   : Нет
Аудио #2
Идентификатор                            : 3
Формат                                   : AC-3
Формат/Информация                        : Audio Coding 3
Расширение режима                        : CM (complete main)
Параметр Endianness формата              : Big
Идентификатор кодека                     : A_AC3
Продолжительность                        : 1 ч. 30 м.
Вид битрейта                             : Постоянный
Битрейт                                  : 640 Кбит/сек
Каналы                                   : 6 каналов
Расположение каналов                     : Front: L C R, Side: L R, LFE
Частота                                  : 48,0 КГц
Битовая глубина                          : 16 бит
Метод сжатия                             : С потерями
Размер потока                            : 413 Мбайт (9%)
Заголовок                                : AC3.640.Kbps.English
Язык                                     : English
Default                                  : Нет
Forced                                   : Нет
Текст #1
Идентификатор                            : 4
Формат                                   : UTF-8
Идентификатор кодека                     : S_TEXT/UTF8
Идентификатор кодека/Информация          : UTF-8 Plain Text
Заголовок                                : Russian (Full)
Язык                                     : Russian
Default                                  : Да
Forced                                   : Нет
Текст #2
Идентификатор                            : 5
Формат                                   : UTF-8
Идентификатор кодека                     : S_TEXT/UTF8
Идентификатор кодека/Информация          : UTF-8 Plain Text
Заголовок                                : English (Full)
Default                                  : Нет
Forced                                   : Нет
Меню
00:00:00.000                             : en:Chapter 00
00:03:44.974                             : en:Chapter 01
00:14:41.422                             : en:Chapter 02
00:22:35.270                             : en:Chapter 03
00:33:14.534                             : en:Chapter 04
00:37:50.518                             : en:Chapter 05
00:45:48.912                             : en:Chapter 06
00:52:12.295                             : en:Chapter 07
00:59:39.158                             : en:Chapter 08
01:09:22.491                             : en:Chapter 09
01:15:54.258                             : en:Chapter 10
01:26:04.784                             : en:Chapter 11
Скриншоты:
       
 


_________________
Other forum [Profile] [PM]

Dracula

Longevity: 7 years 6 months

Posts: 11221

Торрент-статистика

Post 26-Sep-2012 10:36 (after 35 minutes)

Топик был перенесен из форума Фильмы 2012 (новинки) в форум Новинки (DVD, HD Video)


Delia
 
Display posts from previous:    
Reply to topic

The time now is: Today 05:10

All times are GMT + 3 Hours



You cannot post new topics in this forum
You cannot reply to topics in this forum
You cannot edit your posts in this forum
You cannot delete your posts in this forum
You cannot vote in polls in this forum
You cannot attach files in this forum
You cannot download files in this forum