Today is a free download without charge Download

Фальшивомонетчики / Die Falscher / Die Fälscher / The Counterfeiters (Штефан Рузовицки) [1080p] [2007 г., Военный, детектив, драма, BDRip]

Reply to topic
 
Author
Message

Delia ®

Gender:

Longevity: 11 years

Posts: 1821

Торрент-статистика

Post 26-Sep-2012 08:16

[Quote]

-ФальшивомонетчикиDie Falscher«It takes a clever man to make money, it takes a genius to stay alive»-- Год выпуска: 2007
Страна: Австрия, Германия
Жанр: драма, криминал, военный
Продолжительность: 01:38:30
Перевод: Профессиональный (многоголосый, закадровый)
Режиссер: Штефан Руцовицки / Stefan Ruzowitzky
Сценарий: Штефан Руцовицки / Stefan Ruzowitzky, Адольф Бюргер / Adolf Burger
Продюсер: Йозеф Айхгольцер / Josef Aichholzer, Нина Боллманн / Nina Bohlmann, Хеннинг Молфентер / Henning Molfenter, Бабетт Шрёдер / Babette Schröder, Кэролайн фон Сенден / Caroline von Senden
Оператор: Бенедикт Ньенфельс / Benedict Neuenfels
Композитор: Мариус Руланд / Marius Ruhland
В ролях:
Карл Марковиц (Salomon Sorowitsch), Аугуст Диль (Adolf Burger), Девид Штрисов (Sturmbannführer Friedrich Herzog), Мартин Брамбах (Hauptscharführer Holst), Аугуст Цирнер (Dr. Klinger), Вейт Стабнер (Atze), Себастьян Урзендовский (Kolya Karloff), Андреас Шмидт (Zilinski), Тило Прюкнер (Dr. Viktor Hahn), Ленн Кудрявицки (Loszek), Норман Штоффреген (Abramovic), Бернд Раукамп (KZ-Insasse Dusche)
Описание: Берлин, 1936 год. Короля фальшивомонетчиков еврейского происхождения Соломона берут с поличным и доставляют в концлагерь, где знаменитому мошеннику приходится выживать, рисуя картины фашистской пропаганды.
Затем гестаповцы переводят его в закрытый лагерь Заксенхаузен, где по приказу Гитлера собирается секретная группа заключенных-фальшивомонетчиков, которые должны печатать фиктивные доллары и фунты-стерлинги для подрыва экономики вражеских государств. Опытный «блинопек» Соломон и типогравщик Адольф Бюргер оказывается перед нелегким выбором: работать на фашистов или погибнуть...
-
MPAA: - Лицам до 17 лет обязательно присутствие взрослого--
Качество: BDRip
Контейнер: MKV
Видео: AVC, 1920x1040 (16:9), 9699 kbps, 24 fps, 0,202 bpp
Аудио: русский / AC3 / 5.1 / 48 kHz / 448 kbps / 16 bit
Субтитры №1: русские
Субтитры №2: английские--

Media Info

General
Unique ID : 211711688688363479781758624437485235148 (0x9F46302627346746B69D455E16B0EBCC)
Complete name : E:\торрент\Falscher.2007.BD.Rip-F.HD.mkv
Format : Matroska
Format version : Version 2
File size : 6.97 GiB
Duration : 1h 38mn
Overall bit rate : 10.1 Mbps
Encoded date : UTC 2012-09-26 04:21:54
Writing application : mkvmerge v5.8.0 ('No Sleep / Pillow') built on Sep 2 2012 15:37:04
Writing library : libebml v1.2.3 + libmatroska v1.3.0
Video
ID : 1
Format : AVC
Format/Info : Advanced Video Codec
Format profile : [email protected]
Format settings, CABAC : Yes
Format settings, ReFrames : 4 frames
Codec ID : V_MPEG4/ISO/AVC
Duration : 1h 38mn
Bit rate : 9 699 Kbps
Width : 1 920 pixels
Height : 1 040 pixels
Display aspect ratio : 16:9
Frame rate : 24.000 fps
Color space : YUV
Chroma subsampling : 4:2:0
Bit depth : 8 bits
Scan type : Progressive
Bits/(Pixel*Frame) : 0.202
Stream size : 6.53 GiB (94%)
Writing library : x264 core 125 r2208 d9d2288
Encoding settings : cabac=1 / ref=4 / deblock=1:-2:-2 / analyse=0x3:0x113 / me=umh / subme=10 / psy=1 / psy_rd=0.85:0.25 / mixed_ref=1 / me_range=32 / chroma_me=1 / trellis=2 / 8x8dct=1 / cqm=0 / deadzone=21,11 / fast_pskip=0 / chroma_qp_offset=0 / threads=6 / lookahead_threads=1 / sliced_threads=0 / nr=0 / decimate=1 / interlaced=0 / bluray_compat=0 / constrained_intra=0 / bframes=8 / b_pyramid=2 / b_adapt=2 / b_bias=0 / direct=3 / weightb=1 / open_gop=0 / weightp=2 / keyint=240 / keyint_min=24 / scenecut=40 / intra_refresh=0 / rc_lookahead=90 / rc=2pass / mbtree=1 / bitrate=9699 / ratetol=1.0 / qcomp=0.70 / qpmin=0 / qpmax=69 / qpstep=4 / cplxblur=20.0 / qblur=0.5 / ip_ratio=1.40 / aq=1:0.70
Language : English
Default : Yes
Forced : No
Audio
ID : 2
Format : AC-3
Format/Info : Audio Coding 3
Mode extension : CM (complete main)
Codec ID : A_AC3
Duration : 1h 38mn
Bit rate mode : Constant
Bit rate : 448 Kbps
Channel(s) : 6 channels
Channel positions : Front: L C R, Side: L R, LFE
Sampling rate : 48.0 KHz
Bit depth : 16 bits
Compression mode : Lossy
Stream size : 316 MiB (4%)
Language : Russian
Default : Yes
Forced : No
Text #1
ID : 3
Format : UTF-8
Codec ID : S_TEXT/UTF8
Codec ID/Info : UTF-8 Plain Text
Language : Russian
Default : No
Forced : No
Text #2
ID : 4
Format : UTF-8
Codec ID : S_TEXT/UTF8
Codec ID/Info : UTF-8 Plain Text
Language : English
Default : No
Forced : No


Скриншоты

     
     

_________________
Человек – это канат, натянутый между животным и сверхчеловеком, – канат над пропастью.
В человеке ценно то, что он мост, а не цель. Фридрих Ницше
Other forum [Profile] [PM]
Display posts from previous:    
Reply to topic

The time now is: Today 11:35

All times are GMT + 3 Hours



You cannot post new topics in this forum
You cannot reply to topics in this forum
You cannot edit your posts in this forum
You cannot delete your posts in this forum
You cannot vote in polls in this forum
You cannot attach files in this forum
You cannot download files in this forum