Today is a free download without charge Download

Славный Бакури (Шалва Гедеванишвили) [1971, СССР, мультфильм, сказка, WEBRip]

Reply to topic
 
Author
Message

Omen ®

Longevity: 7 years 11 months

Posts: 181087

Торрент-статистика

Post 26-Nov-2016 01:00

[Quote]

Славный Бакури
Страна: СССР (Грузинская республика)
Жанр: мультфильм, сказка
Продолжительность: 00:10:02
Год выпуска: 1971
Режиссёр: Шалва Гедеванишвили
Описание: В необычной деревне, где с неба вместо снега падала сладкая каша, жили три лентяя - Ворчун, Плакса и Нытик. А по соседству жил работящий паренёк по имени Бакури. Однажды лентяи попросили Бакури вырезать для них из дерева большую-пребольшую ложку...
Качество: WEBRip
Формат: AVI
Видео: 1098 kbps, 640х464 (1.379), 25.000 fps, MPEG-4 Visual (XviD)
Аудио: 128 kbps, 44.1 kHz, 2 channels, MPEG Audio (MP3)
Субтитры: отсутствуют

Подробные технические данные

GeneralComplete name : Славный Бакури. 1971.aviFormat : AVIFormat/Info : Audio Video InterleaveFile size : 88.7 MiBDuration : 10mn 2sOverall bit rate : 1 236 KbpsWriting application : VirtualDubMod 1.5.10.2 (build 2540/release)Writing library : VirtualDubMod build 2540/release
VideoID : 0Format : MPEG-4 VisualFormat profile : Advanced [email protected] settings, BVOP : 2Format settings, QPel : NoFormat settings, GMC : No warppointsFormat settings, Matrix : Default (H.263)Codec ID : XVIDCodec ID/Hint : XviDDuration : 10mn 2sBit rate : 1 098 KbpsWidth : 640 pixelsHeight : 464 pixelsDisplay aspect ratio : 1.379Frame rate : 25.000 fpsColor space : YUVChroma subsampling : 4:2:0Bit depth : 8 bitsScan type : ProgressiveCompression mode : LossyBits/(Pixel*Frame) : 0.148Stream size : 78.8 MiB (89%)Writing library : XviD 64
AudioID : 1Format : MPEG AudioFormat version : Version 1Format profile : Layer 3Codec ID : 55Codec ID/Hint : MP3Duration : 10mn 2sBit rate mode : ConstantBit rate : 128 KbpsChannel(s) : 2 channelsSampling rate : 44.1 KHzCompression mode : LossyStream size : 9.19 MiB (10%)Alignment : Split accross interleavesInterleave, duration : 40 ms (1.00 video frame)Interleave, preload duration : 500 ms

Скриншоты

Other forum [Profile] [PM]
Display posts from previous:    
Reply to topic

The time now is: Today 23:40

All times are GMT + 3 Hours



You cannot post new topics in this forum
You cannot reply to topics in this forum
You cannot edit your posts in this forum
You cannot delete your posts in this forum
You cannot vote in polls in this forum
You cannot attach files in this forum
You cannot download files in this forum