Today is a free download without charge Download

Два богатыря (Александр Давыдов) [1989, СССР, Рисованный мультфильм, WEBRip]

Reply to topic
 
Author
Message

Omen ®

Longevity: 7 years 11 months

Posts: 181087

Торрент-статистика

Post 22-Nov-2016 01:00

[Quote]

Два богатыря
Страна: СССР
Жанр: Рисованный мультфильм
Продолжительность: 00:10:31
Год выпуска: 1989
Русские субтитры: нет
Режиссёр: Александр Давыдов
Роли озвучивали: Мария Виноградова, Наталья Ченчик, Людмила Гнилова, Александр Малов, Дмитрий Полонский, Павел Смеян, Вячеслав Стёпин.
Описание: Из своих стран на поиски возлюбленных выехали русский богатырь Иван и казахский воин Батыр. Иван хочет освободить из плена Кощея Бессмертного красну девицу Марью, Батыр же едет за красавицей Алтыншаш, похищенной у него злым дэвом. Но так получилось, что дороги Ивана и Батыра пересеклись, их кони столкнулись, и два богатыря начали выяснять отношения на мечах. В пылу сражения оба вспоминают, что у них ещё есть дела, и договариваются встретиться на этом самом месте после того, как доведут дела до конца. Но оба сбиваются с пути…
Доп. информация:
сценаристы: Заурия Нурумбетова, Тамара Чуганова
художник-постановщик: Елизавета Жарова
художники: Сергей Маракасов, Анна Атаманова, Татьяна Макарова, Любовь Горелова
аниматоры: Александр Дорогов, Александр Маркелов, Виктор Арсентьев, Владимир Шевченко, Галина Золотовская
композитор: Нина Савичева
оператор: Людмила Крутовская
звукорежиссёры: В. Венгеровский, Сергей Карпов
редактор: Наталья Абрамова
монтажёр: Елена Белявская
Качество: WEBRip
Формат: AVI
Видео: 640x480 (1.33:1), 25 fps, XviD MPEG-4 ~2096 kbps avg, 0.27 bit/pixel
Аудио: 48 kHz, AC3 Dolby Digital, 1/0 (C) ch, ~128.00 kbps avg
Субтитры: нет

Подробные технические данные

Format : AVIFormat/Info : Audio Video InterleaveFile size : 168 MiBDuration : 10mn 31sOverall bit rate : 2 234 KbpsWriting application : VirtualDubModRus 1.5.10.2 (build 2542/release)Writing library : VirtualDubMod build 2542/release
VideoID : 0Format : MPEG-4 VisualFormat profile : Advanced [email protected] settings, BVOP : 2Format settings, QPel : NoFormat settings, GMC : No warppointsFormat settings, Matrix : CustomCodec ID : XVIDCodec ID/Hint : XviDDuration : 10mn 31sBit rate : 2 096 KbpsWidth : 640 pixelsHeight : 480 pixelsDisplay aspect ratio : 16:9Original display aspect ratio : 4:3Frame rate : 25.000 fpsColor space : YUVChroma subsampling : 4:2:0Bit depth : 8 bitsScan type : ProgressiveCompression mode : LossyBits/(Pixel*Frame) : 0.273Stream size : 158 MiB (94%)Writing library : XviD 65
AudioID : 1Format : AC-3Format/Info : Audio Coding 3Mode extension : CM (complete main)Format settings, Endianness : BigCodec ID : 2000Duration : 10mn 31sBit rate mode : ConstantBit rate : 128 KbpsChannel(s) : 1 channelChannel positions : Front: CSampling rate : 48.0 KHzBit depth : 16 bitsCompression mode : LossyStream size : 9.63 MiB (6%)Alignment : Aligned on interleavesInterleave, duration : 40 ms (1.00 video frame)Interleave, preload duration : 512 ms

сравнение

Сравнение 1 с [url=viewtopic.php?t=4541588]http:///*spam*//forum/viewtopic.php?t=4541588[/url]
Тут -- http://screenshotcomparison.com/comparison/191415/picture:2
Сравнение 2 с [url=viewtopic.php?t=1188166]http:///*spam*//forum/viewtopic.php?t=1188166[/url]
Тут -- http://screenshotcomparison.com/comparison/191417/picture:0

Скриншоты

Other forum [Profile] [PM]
Display posts from previous:    
Reply to topic

The time now is: Today 00:26

All times are GMT + 3 Hours



You cannot post new topics in this forum
You cannot reply to topics in this forum
You cannot edit your posts in this forum
You cannot delete your posts in this forum
You cannot vote in polls in this forum
You cannot attach files in this forum
You cannot download files in this forum