Today is a free download without charge Download

Бравый инспектор Мамочкин (Гарри Бардин) [1977, СССР, Рисованный мультфильм, WEBRip]

Reply to topic
 
Author
Message

Omen ®

Longevity: 7 years 11 months

Posts: 181087

Торрент-статистика

Post 21-Nov-2016 01:00

[Quote]

Бравый инспектор Мамочкин
Страна: СССР
Жанр: Рисованный мультфильм
Продолжительность: 00:07:15
Год выпуска: 1977
Русские субтитры: нет
Режиссёр: Гарри Бардин
Роли озвучивали: Е. Евстигнеев, В. Ливанов
Описание: Как инспектор ГАИ Мамочкин наказал нарушителя общественного спокойствия…
Доп. информация: «Союзмультфильм»
Сценарий: Аркадий Хайт, Гарри Бардин
Оператор: С.Кащеева
Композитор: Владимир Комаров
Монтаж: М.Михеева
Качество: WEBRip
Формат: AVI
Видео: 640x480 (1.33:1), 25 fps, XviD 65~2094 kbps avg, 0.27 bit/pixel
Аудио: 48 kHz, AC3 Dolby Digital, 1/0 (C) ch, ~128.00 kbps avg
Субтитры: нет

Подробные технические данные

Format : AVIFormat/Info : Audio Video InterleaveFile size : 116 MiBDuration : 7mn 15sOverall bit rate : 2 232 KbpsWriting application : VirtualDubModRus 1.5.10.2 (build 2542/release)Copyright : Rutracker.crComment : WEBRip by dvdss
VideoID : 0Format : MPEG-4 VisualFormat profile : Advanced [email protected] settings, BVOP : 2Format settings, QPel : NoFormat settings, GMC : No warppointsFormat settings, Matrix : CustomCodec ID : XVIDCodec ID/Hint : XviDDuration : 7mn 15sBit rate : 2 094 KbpsWidth : 640 pixelsHeight : 480 pixelsDisplay aspect ratio : 5:4Original display aspect ratio : 4:3Frame rate : 25.000 fpsColor space : YUVChroma subsampling : 4:2:0Bit depth : 8 bitsScan type : ProgressiveCompression mode : LossyBits/(Pixel*Frame) : 0.273Stream size : 109 MiB (94%)Writing library : XviD 65
AudioID : 1Format : AC-3Format/Info : Audio Coding 3Mode extension : CM (complete main)Format settings, Endianness : BigCodec ID : 2000Duration : 7mn 15sBit rate mode : ConstantBit rate : 128 KbpsChannel(s) : 1 channelChannel positions : Front: CSampling rate : 48.0 KHzBit depth : 16 bitsCompression mode : LossyStream size : 6.64 MiB (6%)Alignment : Aligned on interleavesInterleave, duration : 40 ms (1.00 video frame)Interleave, preload duration : 512 ms

сравнение

Сравнение с [url=viewtopic.php?t=3281753]http:///*spam*//forum/viewtopic.php?t=3281753[/url]
Тут -- http://screenshotcomparison.com/comparison/191283/picture:1

интересные факты

Один из руководителей ГАИ предложил Аркадию Хайту и Гарри Бардину сделать смешной сериал про инспектора ГАИ, но так, чтобы в ГАИ потянулись умные, молодые и порядочные люди. Пока снимали мультфильм, руководителя сняли с поста. Заменил его человек без чувства юмора, и продолжение снимать не стали.

Скриншоты

Other forum [Profile] [PM]
Display posts from previous:    
Reply to topic

The time now is: Today 11:09

All times are GMT + 3 Hours



You cannot post new topics in this forum
You cannot reply to topics in this forum
You cannot edit your posts in this forum
You cannot delete your posts in this forum
You cannot vote in polls in this forum
You cannot attach files in this forum
You cannot download files in this forum