Today is a free download without charge Download

Черное золото / Black Gold (Жан-Жак Анно / Jean-Jacques Annaud) [2011, Франция, Италия, Катар, Тунис, драма, приключения, военный, BDRip 1080p]

Reply to topic
 
Author
Message

Delia ®

Gender:

Longevity: 10 years

Posts: 1821

Торрент-статистика

Post 25-Sep-2012 08:42

[Quote]

Черное золотоBlack Gold- Страна: Франция, Италия, Катар, Тунис
Жанр: драма, приключения, военный
Год выпуска: 2011
Продолжительность: 02:10:17-Перевод: Профессиональный (полное дублирование)
Субтитры: русские, английские
Режиссер: Жан-Жак Анно / Jean-Jacques Annaud
В ролях:
Антонио Бандерас (Emir Nesib), Тахар Рахим (Prince Auda), Марк Стронг (Sultan Amar), Фрида Пинто (Princess Leyla), Риз Ахмед (Ali), Кори Джонсон (Thurkettle), Лия Кебеде (Aicha), Эрик Эбони (Hassan Dakhil), Акин Гази (Saleeh), Жан Уддин (Ibn Idriss), Jamal Awar (Companion Khoz Ahmed), Mostafa Gaafar (Khoz Ahmed)-Описание: События картины разворачиваются где-то на Аравийском полуострове в 30 годы, примерно в то время, когда там была обнаружена нефть. В сюжете переплелись борьба за власть, религия, нефтяная лихорадка и, конечно же, любовь.- -Качество: BDRip
Контейнер: MKV
Видео: AVC, 1920x816 (2.35:1), 7847 kbps, 23,976 fps, 0,209 bpp
Аудио №1: русский / AC3 / 5.1 / 48 kHz / 448 kbps / 16 bit
Аудио №2: английский / AC3 / 5.1 / 48 kHz / 448 kbps / 16 bit
Навигация по главам: есть--

x264

Код:
x264 [info]: frame I:1486  Avg QP:18.69  size:162745
x264 [info]: frame P:42427 Avg QP:19.88  size: 76815
x264 [info]: frame B:143395 Avg QP:21.85  size: 28760

Media Info

General
Unique ID : 217052762573896176873997855848657915573 (0xA34AD76C3C7A51C59FB8612BAE510EB5)
Complete name : E:\торрент\Chernoe.Zoloto.2011.BDRip-F.HD.mkv
Format : Matroska
Format version : Version 2
File size : 7.95 GiB
Duration : 2h 10mn
Overall bit rate : 8 734 Kbps
Encoded date : UTC 2012-09-25 04:55:27
Writing application : mkvmerge v5.8.0 ('No Sleep / Pillow') built on Sep 2 2012 15:37:04
Writing library : libebml v1.2.3 + libmatroska v1.3.0
Video
ID : 1
Format : AVC
Format/Info : Advanced Video Codec
Format profile : [email protected]
Format settings, CABAC : Yes
Format settings, ReFrames : 5 frames
Codec ID : V_MPEG4/ISO/AVC
Duration : 2h 10mn
Bit rate : 7 847 Kbps
Width : 1 920 pixels
Height : 816 pixels
Display aspect ratio : 2.35:1
Frame rate : 23.976 fps
Color space : YUV
Chroma subsampling : 4:2:0
Bit depth : 8 bits
Scan type : Progressive
Bits/(Pixel*Frame) : 0.209
Stream size : 6.97 GiB (88%)
Writing library : x264 core 125 r2208 d9d2288
Encoding settings : cabac=1 / ref=5 / deblock=1:-1:-1 / analyse=0x3:0x113 / me=umh / subme=10 / psy=1 / psy_rd=0.90:0.05 / mixed_ref=1 / me_range=48 / chroma_me=1 / trellis=2 / 8x8dct=1 / cqm=0 / deadzone=21,11 / fast_pskip=0 / chroma_qp_offset=1 / threads=6 / lookahead_threads=1 / sliced_threads=0 / nr=0 / decimate=1 / interlaced=0 / bluray_compat=0 / constrained_intra=0 / bframes=8 / b_pyramid=2 / b_adapt=2 / b_bias=0 / direct=3 / weightb=1 / open_gop=0 / weightp=2 / keyint=240 / keyint_min=23 / scenecut=40 / intra_refresh=0 / rc=2pass / mbtree=0 / bitrate=7847 / ratetol=1.0 / qcomp=0.70 / qpmin=10 / qpmax=51 / qpstep=4 / cplxblur=20.0 / qblur=0.5 / ip_ratio=1.40 / pb_ratio=1.30 / aq=1:0.80
Language : English
Default : Yes
Forced : No
Audio #1
ID : 2
Format : AC-3
Format/Info : Audio Coding 3
Mode extension : CM (complete main)
Codec ID : A_AC3
Duration : 2h 10mn
Bit rate mode : Constant
Bit rate : 448 Kbps
Channel(s) : 6 channels
Channel positions : Front: L C R, Side: L R, LFE
Sampling rate : 48.0 KHz
Bit depth : 16 bits
Compression mode : Lossy
Stream size : 417 MiB (5%)
Language : Russian
Default : Yes
Forced : No
Audio #2
ID : 3
Format : AC-3
Format/Info : Audio Coding 3
Mode extension : CM (complete main)
Codec ID : A_AC3
Duration : 2h 10mn
Bit rate mode : Constant
Bit rate : 448 Kbps
Channel(s) : 6 channels
Channel positions : Front: L C R, Side: L R, LFE
Sampling rate : 48.0 KHz
Bit depth : 16 bits
Compression mode : Lossy
Stream size : 417 MiB (5%)
Language : English
Default : No
Forced : No
Text #1
ID : 4
Format : UTF-8
Codec ID : S_TEXT/UTF8
Codec ID/Info : UTF-8 Plain Text
Language : Russian
Default : No
Forced : No
Text #2
ID : 5
Format : UTF-8
Codec ID : S_TEXT/UTF8
Codec ID/Info : UTF-8 Plain Text
Language : English
Default : No
Forced : No
Menu
00:00:00.000 : en:Chapter 01
00:08:13.618 : en:Chapter 02
00:17:04.440 : en:Chapter 03
00:24:54.743 : en:Chapter 04
00:32:44.504 : en:Chapter 05
00:40:26.924 : en:Chapter 06
00:47:58.542 : en:Chapter 07
00:57:42.125 : en:Chapter 08
01:07:48.731 : en:Chapter 09
01:17:07.205 : en:Chapter 10
01:25:29.124 : en:Chapter 11
01:32:49.689 : en:Chapter 12
01:41:57.236 : en:Chapter 13
01:47:43.540 : en:Chapter 14
01:58:57.505 : en:Chapter 15
02:08:23.821 : en:Chapter 16
02:10:12.262 : en:Chapter 17

Скриншоты

       
       

_________________
Человек – это канат, натянутый между животным и сверхчеловеком, – канат над пропастью.
В человеке ценно то, что он мост, а не цель. Фридрих Ницше
Other forum [Profile] [PM]
Display posts from previous:    
Reply to topic

The time now is: Today 10:20

All times are GMT + 3 Hours



You cannot post new topics in this forum
You cannot reply to topics in this forum
You cannot edit your posts in this forum
You cannot delete your posts in this forum
You cannot vote in polls in this forum
You cannot attach files in this forum
You cannot download files in this forum