Today is a free download without charge Download

Латышская колыбельная (Елизавета Скворцова) [2007, Россия, музыкальный мультфильм, WEBRip] из цикла "Колыбельные Мира"

Reply to topic
 
Author
Message

Omen ®

Longevity: 7 years 11 months

Posts: 181087

Торрент-статистика

Post 14-Nov-2016 01:00

[Quote]

Латышская колыбельная
Страна: Россия
Жанр: музыкальный мультфильм
Продолжительность: 00:04:04
Год выпуска: 2007
Режиссёр: Елизавета Скворцова
Поёт: группа "Iļģi"
Описание: Экранизация латышской народной песни "Neba lielas lietas dēļ".
Перед началом дети рассказывают про Латвию.
Доп. информация: Мультфильм из цикла "Колыбельные Мира".
Качество: WEBRip
Формат: AVI
Видео: 1783 kbps, 640х480 (4:3), 25.000 fps, MPEG-4 Visual (XviD)
Аудио: 128 kbps, 44.1 kHz, 2 channels, MPEG Audio (MP3)
Субтитры: отсутствуют

Подробные технические данные

GeneralComplete name : Латышская колыбельная.aviFormat : AVIFormat/Info : Audio Video InterleaveFile size : 56.0 MiBDuration : 4mn 4sOverall bit rate : 1 921 KbpsWriting application : VirtualDubMod 1.5.10.2 (build 2540/release)Writing library : VirtualDubMod build 2540/release
VideoID : 0Format : MPEG-4 VisualFormat profile : Advanced [email protected] settings, BVOP : 2Format settings, QPel : NoFormat settings, GMC : No warppointsFormat settings, Matrix : Default (H.263)Codec ID : XVIDCodec ID/Hint : XviDDuration : 4mn 4sBit rate : 1 783 KbpsWidth : 640 pixelsHeight : 480 pixelsDisplay aspect ratio : 4:3Frame rate : 25.000 fpsColor space : YUVChroma subsampling : 4:2:0Bit depth : 8 bitsScan type : ProgressiveCompression mode : LossyBits/(Pixel*Frame) : 0.232Stream size : 52.0 MiB (93%)Writing library : XviD 64
AudioID : 1Format : MPEG AudioFormat version : Version 1Format profile : Layer 3Codec ID : 55Codec ID/Hint : MP3Duration : 4mn 4sBit rate mode : ConstantBit rate : 128 KbpsChannel(s) : 2 channelsSampling rate : 44.1 KHzCompression mode : LossyStream size : 3.73 MiB (7%)Alignment : Split accross interleavesInterleave, duration : 40 ms (1.00 video frame)Interleave, preload duration : 500 ms

Скриншоты

Текст колыбельной

Neba lielas lietas dēļ'i,
Pulciņš jāja bāleliņu.
Pulciņš jāja bāleliņu, bāleliņ'.
Sika, maza dvēselīte
Baltajās'i villainēs'i.
Baltajās'i villainēs'i, villainēs.
Jūs, ļautiņi, nezinat'i,
Kur pādīte radījās'i.
Kur pādīte radījās'i, radījās.
No debesu nolaidās'i,
Ar sudraba ķēdītēm'i.
Ar sudraba ķēdītēm'i, ķēdītēm.
Ar sudraba ķēdītēm'i,
Iekš māmiņas šūpulīša.
Iekš māmiņas šūpulīša, šūpulīša.
Other forum [Profile] [PM]
Display posts from previous:    
Reply to topic

The time now is: Today 11:25

All times are GMT + 3 Hours



You cannot post new topics in this forum
You cannot reply to topics in this forum
You cannot edit your posts in this forum
You cannot delete your posts in this forum
You cannot vote in polls in this forum
You cannot attach files in this forum
You cannot download files in this forum