Today is a free download without charge Download

Пираты Карибского моря 1-4 / Pirates of the Caribbean 1-4 (Гор Вербински, Роб Маршалл / Gore Verbinski, Rob Marshall) [2003-2011 г., фэнтези, боевик, приключения, BD Remux]

Reply to topic
 
Author
Message

Meshanik ®

Gender:

Longevity: 8 years 10 months

Posts: 3866

Location: Los Angeles

Торрент-статистика

Post 25-Sep-2012 03:33

[Quote]

--Пираты Карибского моря: Проклятие Черной жемчужины
Pirates of the Caribbean: The Curse of the Black Pearl

«Over 3000 Islands of Paradise -- For Some it's A Blessing -- For Others... It's A Curse.»
----Год выпуска: 2003
Страна: США
Жанр: фэнтези, боевик, приключения
Продолжительность: 02:13:20
Перевод: Профессиональный (дублированый) [Лицензия]--Режиссер: Гор Вербински / Gore Verbinski
В ролях: Джонни Депп, Джеффри Раш, Орландо Блум, Кира Найтли, Джек Девенпорт, Джонатан Прайс, Ли Аренберг, Маккензи Крук, Дэмиан О’Хейр, Джиллз Нью--Описание: Жизнь харизматичного авантюриста, капитана Джека Воробья, полная увлекательных приключений, резко меняется, когда его заклятый враг — капитан Барбосса — похищает корабль Джека, Черную Жемчужину, а затем нападает на Порт Ройал и крадет прекрасную дочь губернатора, Элизабет Свонн.
Друг детства Элизабет, Уилл Тернер, вместе с Джеком возглавляет спасательную экспедицию на самом быстром корабле Британии, в попытке вызволить девушку из плена и заодно отобрать у злодея Черную Жемчужину. Вслед за этой парочкой отправляется амбициозный коммодор Норрингтон, который к тому же числится женихом Элизабет.
Однако Уилл не знает, что над Барбоссой висит вечное проклятие, при лунном свете превращающее его с командой в живых скелетов. Проклятье будет снято лишь тогда, когда украденное золото Ацтеков будет возвращено пиратами на старое место.--Качество: BD Remux
Формат: m2ts
Видео кодек: H.26x
Аудио кодек: AC3
Видео: 1920x1080, 23.98fps, 20.9 Mbps
Аудио: 48.0 KHz, 6 ch, 640 Kbps
Субтитры: Нет
--

Media Info

General
ID : 1 (0x1)
Complete name : C:\/*spam*/\Пираты Карибского моря 1-4 (BD Remux=95гб)\1. Проклятие Черной жемчужины (2003=BD Remux).m2ts
Format : BDAV
Format/Info : Blu-ray Video
File size : 20.9 GiB
Duration : 2h 13mn
Overall bit rate : 22.4 Mbps
Maximum Overall bit rate : 35.5 Mbps
Video
ID : 4113 (0x1011)
Menu ID : 1 (0x1)
Format : AVC
Format/Info : Advanced Video Codec
Format profile : [url=mailto:[email protected]][email protected][/url]
Format settings, CABAC : Yes
Format settings, ReFrames : 3 frames
Format settings, GOP : M=3, N=24
Codec ID : 27
Duration : 2h 13mn
Bit rate mode : Variable
Bit rate : 20.9 Mbps
Maximum bit rate : 40.0 Mbps
Width : 1 920 pixels
Height : 1 080 pixels
Display aspect ratio : 16:9
Frame rate : 23.976 fps
Color space : YUV
Chroma subsampling : 4:2:0
Bit depth : 8 bits
Scan type : Progressive
Bits/(Pixel*Frame) : 0.420
Stream size : 19.4 GiB (93%)
Audio
ID : 4352 (0x1100)
Menu ID : 1 (0x1)
Format : AC-3
Format/Info : Audio Coding 3
Mode extension : CM (complete main)
Codec ID : 129
Duration : 2h 13mn
Bit rate mode : Constant
Bit rate : 640 Kbps
Channel(s) : 6 channels
Channel positions : Front: L C R, Side: L R, LFE
Sampling rate : 48.0 KHz
Bit depth : 16 bits
Compression mode : Lossy
Stream size : 610 MiB (3%)
Language : Russian

Скриншоты

     
--Пираты Карибского моря: Сундук мертвеца
Pirates of the Caribbean: Dead Man's Chest

«Jack is back! Never trust a pirate!»
--
Год выпуска: 2006
Страна: США
Жанр: фэнтези, боевик, приключения
Продолжительность: 02:21:10
Перевод: Профессиональный (дублированый) [Лицензия]--Режиссер: Гор Вербински / Gore Verbinski
В ролях: Джонни Депп, Орландо Блум, Кира Найтли, Джек Девенпорт, Билл Найи, Джонатан Прайс, Ли Аренберг, Маккензи Крук, Кевин МакНэлли, Дэвид Бэйли--Описание: Вновь оказавшись в ирреальном мире, лихой капитан Джек Воробей неожиданно узнает, что является должником легендарного капитана «Летучего Голландца» Дэйви Джонса. Джек должен в кратчайшие сроки решить эту проблему, иначе ему грозит вечное проклятие и рабское существование после смерти. Вдобавок ко всему, срывается свадьба Уилла Тернера и Элизабет Суонн, которые вынуждены составить Джеку компанию в его злоключениях…--Качество: BD Remux
Формат: m2ts
Видео кодек: H.26x
Аудио кодек: AC3
Видео: 1920x1080, 23.98fps, 19.9 Mbps
Аудио: 48.0 KHz, 6 ch, 640 Kbps
Субтитры: Нет

Media Info

General
ID : 1 (0x1)
Complete name : C:\/*spam*/\Пираты Карибского моря 1-4 (BD Remux=95гб)\2. Сундук мертвеца (2006=BD Remux).m2ts
Format : BDAV
Format/Info : Blu-ray Video
File size : 21.1 GiB
Duration : 2h 21mn
Overall bit rate : 21.4 Mbps
Maximum Overall bit rate : 35.5 Mbps
Video
ID : 4113 (0x1011)
Menu ID : 1 (0x1)
Format : AVC
Format/Info : Advanced Video Codec
Format profile : [url=mailto:[email protected]][email protected][/url]
Format settings, CABAC : Yes
Format settings, ReFrames : 3 frames
Format settings, GOP : M=3, N=24
Codec ID : 27
Duration : 2h 21mn
Bit rate mode : Variable
Bit rate : 19.9 Mbps
Maximum bit rate : 40.0 Mbps
Width : 1 920 pixels
Height : 1 080 pixels
Display aspect ratio : 16:9
Frame rate : 23.976 fps
Color space : YUV
Chroma subsampling : 4:2:0
Bit depth : 8 bits
Scan type : Progressive
Bits/(Pixel*Frame) : 0.401
Stream size : 19.6 GiB (93%)
Audio
ID : 4352 (0x1100)
Menu ID : 1 (0x1)
Format : AC-3
Format/Info : Audio Coding 3
Mode extension : CM (complete main)
Codec ID : 129
Duration : 2h 21mn
Bit rate mode : Constant
Bit rate : 640 Kbps
Channel(s) : 6 channels
Channel positions : Front: L C R, Side: L R, LFE
Sampling rate : 48.0 KHz
Bit depth : 16 bits
Compression mode : Lossy
Stream size : 646 MiB (3%)
Language : Russian

Скриншоты

     
--Пираты Карибского моря: На краю Света
Pirates of the Caribbean: At World's End

«At the End of the World, the Adventure Begins»
--
Год выпуска: 2007
Страна: США
Жанр: фэнтези, боевик, приключения
Продолжительность: 02:39:00
Перевод: Профессиональный (дублированый) [Лицензия]--Режиссер: Гор Вербински / Gore Verbinski
В ролях: Джонни Депп, Джеффри Раш, Орландо Блум, Кира Найтли, Джек Девенпорт, Билл Найи, Джонатан Прайс, Ли Аренберг, Маккензи Крук, Кевин МакНэлли--Описание: Новые приключения Джека Воробья и его друзей Уилла Тернера и Элизабет Суонн. На этот раз Уиллу и Элизабет придется объединиться с самим Капитаном Барбоссой для того, чтобы отправиться на край света и спасти своего друга — Джека. Ситуация осложняется тем, что Элизабет попадает к сингапурским пиратам…--Качество: BD Remux
Формат: m2ts
Видео кодек: H.26x
Аудио кодек: AC3
Видео: 1920x1080, 23.98fps, 23.1 Mbps
Аудио: 48.0 KHz, 6 ch, 640 Kbps
Субтитры: Нет
--

Media Info

General
ID : 1 (0x1)
Complete name : C:\/*spam*/\Пираты Карибского моря 1-4 (BD Remux=95гб)\3. На краю Света (2007=BD Remux).m2ts
Format : BDAV
Format/Info : Blu-ray Video
File size : 27.5 GiB
Duration : 2h 38mn
Overall bit rate : 24.7 Mbps
Maximum Overall bit rate : 35.5 Mbps
Video
ID : 4113 (0x1011)
Menu ID : 1 (0x1)
Format : AVC
Format/Info : Advanced Video Codec
Format profile : [url=mailto:[email protected]][email protected][/url]
Format settings, CABAC : Yes
Format settings, ReFrames : 3 frames
Format settings, GOP : M=3, N=24
Codec ID : 27
Duration : 2h 38mn
Bit rate mode : Variable
Bit rate : 23.1 Mbps
Maximum bit rate : 40.0 Mbps
Width : 1 920 pixels
Height : 1 080 pixels
Display aspect ratio : 16:9
Frame rate : 23.976 fps
Color space : YUV
Chroma subsampling : 4:2:0
Bit depth : 8 bits
Scan type : Progressive
Bits/(Pixel*Frame) : 0.465
Stream size : 25.7 GiB (93%)
Audio
ID : 4352 (0x1100)
Menu ID : 1 (0x1)
Format : AC-3
Format/Info : Audio Coding 3
Mode extension : CM (complete main)
Codec ID : 129
Duration : 2h 38mn
Bit rate mode : Constant
Bit rate : 640 Kbps
Channel(s) : 6 channels
Channel positions : Front: L C R, Side: L R, LFE
Sampling rate : 48.0 KHz
Bit depth : 16 bits
Compression mode : Lossy
Stream size : 728 MiB (3%)
Language : Russian

Скриншоты

     
--Пираты Карибского моря: На странных берегах
Pirates of the Caribbean: On Stranger Tides

«Live Forever or Die Trying...»
--
Год выпуска: 2011
Страна: США
Жанр: фэнтези, боевик, приключения
Продолжительность: 02:07:40
Перевод: Профессиональный (дублированый) [Лицензия]--Режиссер: Роб Маршалл / Rob Marshall
В ролях: Джонни Депп, Пенелопа Крус, Джеффри Раш, Иэн МакШейн, Кевин МакНэлли, Стивен Грэм, Сэм Клафлин, Астрид Берже-Фрисби, Кит Ричардс, Ричард Гриффитс--Описание: В новой истории о поисках истины, предательстве, вечной молодости и смертельной опасности капитану Джеку Воробью предстоит столкнуться с женщиной из своего прошлого Анжеликой. До самого конца не будет понятно, связывает ли их настоящая любовь, или же Анжелика искусно притворяется, чтобы вместе с Джеком добраться до таинственного источника вечной молодости.
Она силой принуждает капитана Джека Воробья взойти на корабль «Месть Королевы Анны», которым управляет коварный злодей Черная Борода. Наш герой оказывается в ситуации, когда он не знает, чего ему бояться больше — ужасного злодея или же свою давнюю подругу.--Качество: BD Remux
Формат: m2ts
Видео кодек: H.26x
Аудио кодек: AC3
Видео: 1920x1080, 23.98fps, 26.6 Mbps
Аудио: 48.0 KHz, 6 ch, 640 Kbps
Субтитры: Нет
--

Media Info

General
ID : 1 (0x1)
Complete name : C:\/*spam*/\Пираты Карибского моря 1-4 (BD Remux=95гб)\4. На странных берегах (2011=BD Remux).m2ts
Format : BDAV
Format/Info : Blu-ray Video
File size : 25.3 GiB
Duration : 2h 7mn
Overall bit rate : 28.4 Mbps
Maximum Overall bit rate : 35.5 Mbps
Video
ID : 4113 (0x1011)
Menu ID : 1 (0x1)
Format : AVC
Format/Info : Advanced Video Codec
Format profile : [url=mailto:[email protected]][email protected][/url]
Format settings, CABAC : Yes
Format settings, ReFrames : 4 frames
Codec ID : 27
Duration : 2h 7mn
Bit rate mode : Variable
Bit rate : 26.6 Mbps
Maximum bit rate : 34.0 Mbps
Width : 1 920 pixels
Height : 1 080 pixels
Display aspect ratio : 16:9
Frame rate : 23.976 fps
Color space : YUV
Chroma subsampling : 4:2:0
Bit depth : 8 bits
Scan type : Progressive
Bits/(Pixel*Frame) : 0.536
Stream size : 23.7 GiB (94%)
Audio
ID : 4352 (0x1100)
Menu ID : 1 (0x1)
Format : AC-3
Format/Info : Audio Coding 3
Mode extension : CM (complete main)
Codec ID : 129
Duration : 2h 7mn
Bit rate mode : Constant
Bit rate : 640 Kbps
Channel(s) : 6 channels
Channel positions : Front: L C R, Side: L R, LFE
Sampling rate : 48.0 KHz
Bit depth : 16 bits
Compression mode : Lossy
Stream size : 584 MiB (2%)
Language : Russian

Скриншоты

     
Подготовлено для Dark-os.com
Other forum [Profile] [PM]
Display posts from previous:    
Reply to topic

The time now is: Today 01:55

All times are GMT + 3 Hours



You cannot post new topics in this forum
You cannot reply to topics in this forum
You cannot edit your posts in this forum
You cannot delete your posts in this forum
You cannot vote in polls in this forum
You cannot attach files in this forum
You cannot download files in this forum