Today is a free download without charge Download

Сорок небылиц (Амен Хайдаров) [1978, СССР, мультфильм, WEBRip]

Reply to topic
 
Author
Message

Omen ®

Longevity: 7 years 11 months

Posts: 181087

Торрент-статистика

Post 12-Nov-2016 01:00

[Quote]

Сорок небылиц
Страна: СССР (Казахская республика)
Жанр: мультфильм
Продолжительность: 00:19:11
Год выпуска: 1978
Перевод: не требуется
Режиссёр: Амен Хайдаров
Описание: По мотивам казахской народной сказки.
Жестокий хан издал указ о том, что рассказавший 40 небылиц сможет жениться на ханской дочери, а сказавший при этом хоть слово правды - останется без головы. Молодой пастушок Ташша всегда говорил правду, но решил принять вызов хана...
Качество: WEBRip
Формат: AVI
Видео: 1198 kbps, 640х480 (4:3), 25.000 fps, MPEG-4 Visual (XviD)
Аудио: 128 kbps, 44.1 kHz, 2 channels, MPEG Audio (MP3)
Субтитры: отсутствуют

Подробные технические данные

GeneralComplete name : Сорок небылиц. 1978.aviFormat : AVIFormat/Info : Audio Video InterleaveFile size : 183 MiBDuration : 19mn 11sOverall bit rate : 1 335 KbpsWriting library : VirtualDub build 35491/release
VideoID : 0Format : MPEG-4 VisualFormat profile : Advanced [email protected] settings, BVOP : 2Format settings, QPel : NoFormat settings, GMC : No warppointsFormat settings, Matrix : Default (H.263)Codec ID : XVIDCodec ID/Hint : XviDDuration : 19mn 11sBit rate : 1 198 KbpsWidth : 640 pixelsHeight : 480 pixelsDisplay aspect ratio : 4:3Frame rate : 25.000 fpsColor space : YUVChroma subsampling : 4:2:0Bit depth : 8 bitsScan type : ProgressiveCompression mode : LossyBits/(Pixel*Frame) : 0.156Stream size : 164 MiB (90%)Writing library : XviD 64
AudioID : 1Format : MPEG AudioFormat version : Version 1Format profile : Layer 3Mode : Joint stereoMode extension : MS StereoCodec ID : 55Codec ID/Hint : MP3Duration : 19mn 11sBit rate mode : ConstantBit rate : 128 KbpsChannel(s) : 2 channelsSampling rate : 44.1 KHzCompression mode : LossyStream size : 17.5 MiB (10%)Alignment : Split accross interleavesInterleave, duration : 40 ms (1.00 video frame)Interleave, preload duration : 501 ms

Скриншоты

Other forum [Profile] [PM]
Display posts from previous:    
Reply to topic

The time now is: Today 07:12

All times are GMT + 3 Hours



You cannot post new topics in this forum
You cannot reply to topics in this forum
You cannot edit your posts in this forum
You cannot delete your posts in this forum
You cannot vote in polls in this forum
You cannot attach files in this forum
You cannot download files in this forum