Today is a free download without charge Download

Ученик (Кирилл Серебренников) [2016, Россия, драма, WEB-DL 1080p]

Reply to topic
 
Author
Message

Omen ®

Longevity: 8 years 10 months

Posts: 181086

Торрент-статистика

Post 12-Nov-2016 01:00

[Quote]

Ученик- -Страна: Россия
Жанр: драма
Год выпуска: 2016
Производство: «Hype Film»
Продолжительность: 01:53:02
Оригинальная аудиодорожка: русский
Cубтитры: нет-Режиссер: Кирилл Серебренников-В ролях:
Виктория Исакова, Петр Скворцов, Александр Горчилин, Юлия Ауг, Александра Ревенко,
Антон Васильев, Николай Рощин, Светлана Брагарник, Ирина Рудницкая, Марина Клещева-Описание:
Мир устроен неправильно. Мир погряз во зле. Много лжи, вранья, лицемерия. Добродетель поругана. Вера утрачена. Главный герой, мальчик Вениамин, считает, что знает все о моральных нормах. Как их надо соблюдать, от кого их надо защищать, что такое хорошо и что такое плохо. Его поведение для окружающих становится серьезным испытанием. Где граница между моралью и нетерпимостью, свободой и вседозволенностью, проповедью и терроризмом, религией и манипуляцией?-Возраст: 18+-Качество: WEB-DL 1080p
Формат: MKV
Видео кодек: AVC
Аудио кодек: AC3

Видео: AVC, 1920 х 720 (16:9), 25,000 кадр/сек, 4 484 Кбит/сек, 0.130 bit/pixel
Аудио: AC3, 48000 Hz, 384 Kbps, 6 каналов
-

MediaInfo

General
Unique ID : 233876992966647843604008005158298431527 (0xAFF312061CD3E8929C67C4FE888FB027)
Complete name : D:\Раздачи\Ученик WEB-DL (1080p)\Ученик WEB-DL (1080p).mkv
Format : Matroska
Format version : Version 2
File size : 3.92 GiB
Duration : 1h 53mn
Overall bit rate : 4 967 Kbps
Movie name : The Student (2016) - Release for HDCLUB
Encoded date : UTC 2016-11-09 20:13:37
Writing application : mkvmerge v3.4.0 ('Rapunzel') built on May 15 2010 09:38:20
Writing library : libebml v0.8.0 + libmatroska v0.9.0
Video
ID : 1
Format : AVC
Format/Info : Advanced Video Codec
Format profile : [email protected]
Format settings, CABAC : Yes
Format settings, ReFrames : 5 frames
Codec ID : V_MPEG4/ISO/AVC
Duration : 1h 53mn
Bit rate : 4 484 Kbps
Width : 1 920 pixels
Height : 720 pixels
Display aspect ratio : 2.667
Frame rate mode : Constant
Frame rate : 25.000 fps
Color space : YUV
Chroma subsampling : 4:2:0
Bit depth : 8 bits
Scan type : Progressive
Bits/(Pixel*Frame) : 0.130
Stream size : 3.54 GiB (90%)
Title : The Student (2016) - Release for HDCLUB
Language : Russian
Default : Yes
Forced : No
Color range : Limited
Color primaries : BT.709
Transfer characteristics : BT.709
Matrix coefficients : BT.709
Audio
ID : 2
Format : AC-3
Format/Info : Audio Coding 3
Mode extension : CM (complete main)
Format settings, Endianness : Big
Codec ID : A_AC3
Duration : 1h 53mn
Bit rate mode : Constant
Bit rate : 384 Kbps
Channel(s) : 6 channels
Channel positions : Front: L C R, Side: L R, LFE
Sampling rate : 48.0 KHz
Frame rate : 31.250 fps (1536 spf)
Compression mode : Lossy
Stream size : 310 MiB (8%)
Title : AC3 5.1 @ 384 kbps
Language : Russian
Default : Yes
Forced : No
Menu
00:00:00.000 : en:1
00:05:32.720 : en:2
00:12:30.680 : en:3
00:18:25.480 : en:4
00:26:01.640 : en:5
00:32:51.080 : en:6
00:41:54.040 : en:7
00:47:25.720 : en:8
00:55:20.880 : en:9
01:03:41.360 : en:10
01:11:25.480 : en:11
01:17:30.360 : en:12
01:25:42.440 : en:13
01:35:13.440 : en:14
01:41:26.040 : en:15

Скриншоты

-Раздаю до первых 5-ти скачавших, на раздачи не возвращаюсь...-
Other forum [Profile] [PM]
Similar theme
Forum Topic Author Torrent Replies Last Post
./templates/default/images/folder_dl.gif Обучающее видео ITVDN Все курсы с сайта [2015, Обучение C#, WEBRip, RUS] (Видеоурок) Omen
1 | 0

1 | 3067

51

2016-05-03 09:00
hiy1 Latest
Display posts from previous:    
Reply to topic

The time now is: Today 18:04

All times are GMT + 3 Hours



You cannot post new topics in this forum
You cannot reply to topics in this forum
You cannot edit your posts in this forum
You cannot delete your posts in this forum
You cannot vote in polls in this forum
You cannot attach files in this forum
You cannot download files in this forum