Today is a free download without charge Download

Коллектор (Алексей Красовский) [2016, Россия, драма, триллер, WEB-DL 1080p]

Reply to topic
 
Author
Message

Omen ®

Longevity: 8 years 10 months

Posts: 181086

Торрент-статистика

Post 11-Nov-2016 01:00

[Quote]

Коллектор- -Страна: Россия
Жанр: драма, триллер
Год выпуска: 2016
Производство: «Паприка Продакшн»
Продолжительность: 01:11:04
Оригинальная аудиодорожка: русский
Cубтитры: нет-Режиссер: Алексей Красовский-В ролях:
Константин Хабенский, Евгений Стычкин, Ксения Буравская, Полина Агуреева, Кирилл Плетнёв,
Валентина Лукащук, Александр Тютин, Игорь Золотовицкий, Никита Тюнин, Татьяна Лазарева-Описание:
Артур — мастер своего дела. Работая только с крупными должниками, он находит всю их подноготную и эффективно использует против них. Он никогда не прибегает к банальным методам, его конек — психологическая атака. Артур умеет виртуозно перевоплощаться, сбивать с толку, выводить из равновесия и так допекать своих клиентов, что они готовы вернуть все, только бы никогда больше не слышать его голос. Но однажды Артур сам становится мишенью: в сети появляется скандальное видео с его участием, и от него мгновенно отворачиваются друзья и коллеги. Под угрозой оказывается не только его репутация, но и жизнь… Теперь у коллектора есть всего одна ночь, чтобы найти того, кто загнал его в угол.-Возраст: 16+-Качество: WEB-DL 1080p
Формат: MKV
Видео кодек: AVC
Аудио кодек: AC3

Видео: AVC, 1920 х 804 (16:9), 25,000 кадр/сек, 4 475 Кбит/сек, 0.116 bit/pixel
Аудио: AC3, 48000 Hz, 384 Kbps, 6 каналов
-

MediaInfo

General
Unique ID : 229166569893395942029890225199829476595 (0xAC67E03C5C277C42B73D7E1E6003E4F3)
Complete name : D:\Раздачи\Коллектор WEB-DL (1080p)\Коллектор WEB-DL (1080p).mkv
Format : Matroska
Format version : Version 2
File size : 2.46 GiB
Duration : 1h 11mn
Overall bit rate : 4 958 Kbps
Movie name : Collector (2016) - Release for HDCLUB
Encoded date : UTC 2016-11-09 20:37:40
Writing application : mkvmerge v3.4.0 ('Rapunzel') built on May 15 2010 09:38:20
Writing library : libebml v0.8.0 + libmatroska v0.9.0
Video
ID : 1
Format : AVC
Format/Info : Advanced Video Codec
Format profile : [email protected]
Format settings, CABAC : Yes
Format settings, ReFrames : 5 frames
Codec ID : V_MPEG4/ISO/AVC
Duration : 1h 11mn
Bit rate : 4 475 Kbps
Width : 1 920 pixels
Height : 804 pixels
Display aspect ratio : 2.40:1
Frame rate mode : Constant
Frame rate : 25.000 fps
Color space : YUV
Chroma subsampling : 4:2:0
Bit depth : 8 bits
Scan type : Progressive
Bits/(Pixel*Frame) : 0.116
Stream size : 2.22 GiB (90%)
Title : Collector (2016) - Release for HDCLUB
Language : Russian
Default : Yes
Forced : No
Color range : Limited
Color primaries : BT.709
Transfer characteristics : BT.709
Matrix coefficients : BT.709
Audio
ID : 2
Format : AC-3
Format/Info : Audio Coding 3
Mode extension : CM (complete main)
Format settings, Endianness : Big
Codec ID : A_AC3
Duration : 1h 11mn
Bit rate mode : Constant
Bit rate : 384 Kbps
Channel(s) : 6 channels
Channel positions : Front: L C R, Side: L R, LFE
Sampling rate : 48.0 KHz
Frame rate : 31.250 fps (1536 spf)
Compression mode : Lossy
Stream size : 195 MiB (8%)
Title : AC3 5.1 @ 384 kbps
Language : Russian
Default : Yes
Forced : No
Menu
00:00:00.000 : en:1
00:07:01.120 : en:2
00:12:06.120 : en:3
00:17:52.960 : en:4
00:24:07.360 : en:5
00:29:37.320 : en:6
00:35:13.360 : en:7
00:40:50.320 : en:8
00:46:02.960 : en:9
00:51:26.280 : en:10
00:57:49.440 : en:11
01:04:29.360 : en:12

Скриншоты

-Раздаю до первых 5-ти скачавших, на раздачи не возвращаюсь...-
Other forum [Profile] [PM]
Similar theme
Forum Topic Author Torrent Replies Last Post
./templates/default/images/folder_dl.gif Эротические игры Женский коллектив: Трудовой экстаз [L] [RUS / RUS] (2003) Omen
1 | 0

0 | 2894

44

2012-12-30 12:00
Omen Latest
./templates/default/images/folder_dl.gif Активация ОС Windows и ПО Microsoft Полная коллекция способов активации Windows 7 Omen
2 | 0

0 | 5423

1

2013-01-20 04:24
Omen Latest
./templates/default/images/folder_dl.gif Приключения и квесты Small Town Terrors 3 Galdors Bluff Sammleredition / Террор в городке 3 Блеф Галдора Коллекционное издание [P] [RUS] (2015) Omen
1 | 0

0 | 2118

24

2015-06-13 15:00
Omen Latest
Display posts from previous:    
Reply to topic

The time now is: Today 17:37

All times are GMT + 3 Hours



You cannot post new topics in this forum
You cannot reply to topics in this forum
You cannot edit your posts in this forum
You cannot delete your posts in this forum
You cannot vote in polls in this forum
You cannot attach files in this forum
You cannot download files in this forum