Today is a free download without charge Download

Котенок (Иван Попов) [1996, Россия, Семейный, BDRip 1080p] + Original Rus

Reply to topic
 
Author
Message

Omen ®

Longevity: 8 years 10 months

Posts: 181086

Торрент-статистика

Post 06-Nov-2016 01:00

[Quote]

Котенок
Страна: Россия
Жанр: Семейный
Год выпуска: 1996
Продолжительность: 01:24:09
Перевод: Не требуется
Cубтитры: нет
Оригинальная аудиодорожка: русский
Режиссер: Иван Попов
В ролях: Андрей Кузнецов, Людмила Аринина, Алексей Войтюк, Татьяна Грауз, Мария Попова, Александр Попов, Александр Чургин, Александр Песков, Олег Вершинин, Андрей Звягинцев
Описание: Девочке на птичьем рынке купили котенка, и он стал любимцем в семье музыканта. Но случайно Тиграша, так его назвали, выпал из окна и попал на брезентовую крышу «Газели». В результате путешествия по предновогодней Москве Тиграша уехал далеко от своего дома. Ему повезло - он попал в руки одинокого доброго человека, уже приютившего много кошек в своей комнатушке.
Сэмпл: http://multi-up.com/1125918
Тип релиза: BDRip 1080p (batonchik)
Контейнер: MKV
Видео: AVC/H.264, 1432x1060 (4:3), ~11278 kbps, 23,976 fps
Аудио: AC-3, 2 ch, 448 kbps, CBR | Русский

MediaInfo / h.264 log

--[Information] [03.11.2016 22:50:44] Standard error stream
---[Information] [03.11.2016 22:50:53] raw [info]: 1432x1060p 1:1 @ 24000/1001 fps (cfr)
---[Information] [03.11.2016 22:50:53] x264 [info]: using SAR=1/1
---[Information] [03.11.2016 22:50:53] x264 [info]: using cpu capabilities: MMX2 SSE2Fast SSSE3 SSE4.2 AVX
---[Information] [03.11.2016 22:50:53] x264 [info]: profile High, level 4.1
---[Information] [04.11.2016 6:46:06] x264 [info]: frame I:602 Avg QP:21.13 size:173865
---[Information] [04.11.2016 6:46:06] x264 [info]: frame P:22580 Avg QP:22.45 size: 85913
---[Information] [04.11.2016 6:46:06] x264 [info]: frame B:97887 Avg QP:22.79 size: 51844
---[Information] [04.11.2016 6:46:06] x264 [info]: consecutive B-frames: 1.2% 1.4% 3.9% 10.1% 16.1% 45.0% 9.1% 3.4% 3.8% 3.4% 1.9% 0.8%
-----------------------------------------------------------------------------------------------------------------------------------
Общее
Полное имя : \Котенок.1996.BDRip.1080p.NNMCluub.mkv
Формат : Matroska
Версия формата : Version 2
Размер файла : 6,90 Гбайт
Продолжительность : 1 ч. 24 м.
Общий поток : 11,7 Мбит/сек
Название фильма : Котенок.1996.BDRip.1080p.NNMCluub
Дата кодирования : UTC 2016-11-05 16:08:52
Программа кодирования : mkvmerge v7.7.0 ('Six Voices') 64bit built on Feb 28 2015 23:39:33
Библиотека кодирования : libebml v1.3.1 + libmatroska v1.4.2
Видео
Идентификатор : 1
Формат : AVC
Формат/Информация : Advanced Video Codec
Профиль формата : [email protected]
Параметр CABAC формата : Да
Параметр ReFrames формата : 4 кадра
Идентификатор кодека : V_MPEG4/ISO/AVC
Продолжительность : 1 ч. 24 м.
Битрейт : 11,3 Мбит/сек
Ширина : 1432 пикселя
Высота : 1060 пикселей
Соотношение сторон : 4:3
Режим частоты кадров : Постоянный
Частота кадров : 23,976 (24000/1001) кадра/сек
Цветовое пространство : YUV
Субдискретизация насыщенности : 4:2:0
Битовая глубина : 8 бит
Тип развёртки : Прогрессивная
Бит/(Пиксели*Кадры) : 0.310
Размер потока : 6,49 Гбайт (94%)
Заголовок : Котенок.1996.BDRip.1080p.NNMCluub
Библиотека кодирования : x264 core 146 r2538 121396c
Настройки программы : cabac=1 / ref=4 / deblock=1:-2:-2 / analyse=0x3:0x133 / me=umh / subme=11 / psy=1 / psy_rd=1.00:0.25 / mixed_ref=1 / me_range=32 / chroma_me=1 / trellis=2 / 8x8dct=1 / cqm=0 / deadzone=6,6 / fast_pskip=0 / chroma_qp_offset=-4 / threads=12 / lookahead_threads=3 / sliced_threads=0 / nr=0 / decimate=0 / interlaced=0 / bluray_compat=0 / constrained_intra=0 / bframes=11 / b_pyramid=2 / b_adapt=2 / b_bias=0 / direct=3 / weightb=1 / open_gop=0 / weightp=2 / keyint=250 / keyint_min=23 / scenecut=40 / intra_refresh=0 / rc_lookahead=40 / rc=2pass / mbtree=1 / bitrate=11278 / ratetol=1.0 / qcomp=0.80 / qpmin=0 / qpmax=69 / qpstep=4 / cplxblur=20.0 / qblur=0.5 / vbv_maxrate=50000 / vbv_bufsize=62500 / nal_hrd=none / filler=0 / ip_ratio=1.10 / aq=1:0.70
Язык : English
Default : Да
Forced : Нет
Аудио
Идентификатор : 2
Формат : AC-3
Формат/Информация : Audio Coding 3
Расширение режима : CM (complete main)
Параметр Endianness формата : Big
Идентификатор кодека : A_AC3
Продолжительность : 1 ч. 24 м.
Вид битрейта : Постоянный
Битрейт : 448 Кбит/сек
Каналы : 2 канала
Расположение каналов : Front: L R
Частота : 48,0 КГц
Частота кадров : 31,250 кадров/сек (1536 spf)
Битовая глубина : 16 бит
Метод сжатия : С потерями
Размер потока : 270 Мбайт (4%)
Язык : Russian
Default : Да
Forced : Нет
Меню
00:00:00.000 : ru:Chapter 01
00:08:44.398 : ru:Chapter 02
00:17:13.198 : ru:Chapter 03
00:26:52.944 : ru:Chapter 04
00:38:53.748 : ru:Chapter 05
00:48:54.640 : ru:Chapter 06
00:58:22.832 : ru:Chapter 07
01:12:39.813 : ru:Chapter 08
01:24:07.959 : ru:Chapter 09

Скриншоты

Other forum [Profile] [PM]
Display posts from previous:    
Reply to topic

The time now is: Today 22:38

All times are GMT + 3 Hours



You cannot post new topics in this forum
You cannot reply to topics in this forum
You cannot edit your posts in this forum
You cannot delete your posts in this forum
You cannot vote in polls in this forum
You cannot attach files in this forum
You cannot download files in this forum