Today is a free download without charge Download

Как Новый год на свет появился (Анастасия Головань) [2013, Россия, мультфильм, экранизация, WEBRip-AVC]

Reply to topic
 
Author
Message

Omen ®

Longevity: 7 years 11 months

Posts: 181087

Торрент-статистика

Post 06-Nov-2016 01:00

[Quote]

Как Новый год на свет появился
Страна: Россия
Жанр: мультфильм, экранизация
Продолжительность: 00:26:14
Год выпуска: 2013
Режиссёр: Анастасия Головань
Описание: По сказке Марины Москвиной и Сергея Седова.
Жила-была девочка Варя, которая любила жаркое лето, а холодную зиму не любила. Однажды загадала она желание, чтобы зимы больше не было - на утро так и случилось. Но в природе началась неразбериха, потому что Лето, Осень и Весна перессорились из-за того, кому из них вместо Зимы наступать. Зверям от этой неразберихи в лесу житья не стало. Поняла Варя, что надо ошибку свою исправлять...
Качество: WEBRip-AVC
Формат: MP4
Видео: 1686 kbps, 1280х720 (16:9), 25.000 fps, AVC ([email protected])
Аудио: 126 kbps, 44.1 kHz, 2 channels, AAC (LC)
Субтитры: отсутствуют

Подробные технические данные

GeneralComplete name : Как Новый год на свет появился (2013).mp4Format : MPEG-4Format profile : Base Media / Version 2Codec ID : mp42File size : 341 MiBDuration : 26mn 14sOverall bit rate mode : VariableOverall bit rate : 1 816 KbpsEncoded date : UTC 2016-08-15 05:02:13Tagged date : UTC 2016-08-15 05:02:13gsst : 0gstd : 1574986
VideoID : 1Format : AVCFormat/Info : Advanced Video CodecFormat profile : [email protected] settings, CABAC : YesFormat settings, ReFrames : 3 framesCodec ID : avc1Codec ID/Info : Advanced Video CodingDuration : 26mn 14sBit rate : 1 686 KbpsWidth : 1 280 pixelsHeight : 720 pixelsDisplay aspect ratio : 16:9Frame rate mode : ConstantFrame rate : 25.000 fpsColor space : YUVChroma subsampling : 4:2:0Bit depth : 8 bitsScan type : ProgressiveBits/(Pixel*Frame) : 0.073Stream size : 317 MiB (93%)Title : ISO Media file produced by Google Inc.Encoded date : UTC 2016-08-15 05:02:13Tagged date : UTC 2016-08-15 05:02:13Color primaries : BT.709Transfer characteristics : BT.709Matrix coefficients : BT.709
AudioID : 2Format : AACFormat/Info : Advanced Audio CodecFormat profile : LCCodec ID : 40Duration : 26mn 14sBit rate mode : VariableBit rate : 126 KbpsChannel(s) : 2 channelsChannel positions : Front: L RSampling rate : 44.1 KHzCompression mode : LossyStream size : 23.6 MiB (7%)Title : ISO Media file produced by Google Inc.Encoded date : UTC 2016-08-15 05:02:13Tagged date : UTC 2016-08-15 05:02:13

Скриншоты

Other forum [Profile] [PM]
Display posts from previous:    
Reply to topic

The time now is: Today 08:16

All times are GMT + 3 Hours



You cannot post new topics in this forum
You cannot reply to topics in this forum
You cannot edit your posts in this forum
You cannot delete your posts in this forum
You cannot vote in polls in this forum
You cannot attach files in this forum
You cannot download files in this forum